Menu

Download

Dziś nas odwiedzili:
Archiwum:
Grudzień 2016 (224)
Listopad 2016 (2437)
Październik 2016 (1967)
Wrzesień 2016 (1859)
Sierpień 2016 (2523)
Lipiec 2016 (2609)


Pokaż wszystkie tagi:
Wejścia na Vorek.pl z:
{referer}



NABÓR NA STANOWISKO


MODERATOR        UPLOADER

Autor: aicid
Data: 22 Styczeń 2013
Kategoria: FILMY » Seriale
0


Terminator Kroniki Sary Connor - Sezon 1 [DVBRip] [Lektor PL]

Produkcja: USA
Gatunek: Akcja, Dramat, Sci-Fi
Data premiery: 2008-2009
Reżyseria: David Nutter, Jeff Woolnough
Zdjęcia: Bill Roe, Stephen Collins
Muzyka: Blake Neely, Bear McCreary
Czas trwania: 45 min.


Akcja serialu toczy się po drugiej części Terminatora, a wydarzenia są alternatywne w stosunku do wydarzeń przedstawionych w trzeciej części. Po dwóch latach spokoju od zniszczenia dokumentacji na temat Skynet Sarah i John stają po raz kolejny w starciu z wysłanym z przyszłości terminatorem, którego celem jest zgładzenie Johna. Na odsiecz wysłany zostaje również inny terminator, który ma za zadanie chronić przyszłego przywódcę Ruchu Oporu. Jak się okazuje, mimo zniszczeniu budowania systemu Skynet nadal ma dojść do nuklearnej apokalipsy i bohaterowie po raz kolejny chcą powstrzymać "bunt maszyn".

O B S A D A:

Lena Headey ... Sarah Connor
Thomas Dekker ... John Connor
Summer Glau ... Cameron Phillips / Allison Young
Richard T. Jones ... James Ellison
Brian Austin Green ... Derek Reese
Owain Yeoman ... Cromartie
Shirley Manson ... Catherine Weaver
Leven Rambin ... Riley Dawson

Terminator.The.Sarah.Connor.Chronicles.480p.x264 [Lektor PL].mkv

Format : Matroska
Format version : Version 2
File size : 368 MiB
Duration : 46mn 39s
Overall bit rate : 1 103 Kbps
Movie name : Terminator The Sarah Connor Chronicles Season 1 Episode 1 (2008)
Writing application : Lavf52.94.0
Writing library : Lavf52.94.0
ARTIST : Ripped by ELiTE
COPYRIGHT : HQSource.org

Video
ID : 1
Format : AVC
Format/Info : Advanced Video Codec
Format profile : [email protected]
Format settings, CABAC : Yes
Format settings, ReFrames : 2 frames
Codec ID : V_MPEG4/ISO/AVC
Duration : 46mn 39s
Bit rate : 1 000 Kbps
Width : 852 pixels
Height : 480 pixels
Display aspect ratio : 16:9
Frame rate mode : Variable / Variable
Frame rate : 23.976 fps
Color space : YUV
Chroma subsampling : 4:2:0
Bit depth : 8 bits
Scan type : Progressive
Bits/(Pixel*Frame) : 0.102
Stream size : 323 MiB (88%)
Writing library : x264 core 112 r1834 a51816a
Encoding settings : cabac=1 / [reflink]1 / deblock=1:0:0 / analyse=0x1:0 / me=dia / subme=2 / psy=1 / psy_rd=0.00:0.00 / mixed_[reflink]0 / me_range=16 / chroma_me=1 / trellis=0 / 8x8dct=0 / cqm=0 / deadzone=21,11 / fast_pskip=1 / chroma_qp_offset=0 / threads=4 / sliced_threads=0 / nr=0 / decimate=1 / interlaced=0 / constrained_intra=0 / bframes=3 / b_pyramid=0 / b_adapt=1 / b_bias=0 / direct=3 / weightb=0 / open_gop=0 / weightp=2 / keyint=250 / keyint_min=25 / scenecut=40 / intra_refresh=0 / rc_lookahead=40 / rc=abr / mbtree=1 / bitrate=1000 / ratetol=1.0 / qcomp=0.60 / qpmin=10 / qpmax=51 / qpstep=4 / ip_ratio=1.41 / aq=1:1.00
Default : Yes
Forced : No

Audio
ID : 2
Format : AC-3
Format/Info : Audio Coding 3
Mode extension : CM (complete main)
Format settings, Endianness : Big
Codec ID : A_AC3
Duration : 46mn 39s
Bit rate mode : Constant
Bit rate : 112 Kbps
Channel(s) : 2 channels
Channel positions : Front: L R
Sampling rate : 44.1 KHz
Bit depth : 16 bits
Compression mode : Lossy
Stream size : 37.4 MiB (10%)
Default : Yes
Forced : No


Aby zobaczyć ukryty tekst musisz być zalogowany, jeżeli nie masz konta zarejestruj się!



Podziel się !

Delicious'da Share  Share on Facebook  Friendfeed Share  Google Shared  StubmleUpon'da Share  Digg'de Share  Netvibes'de Share  Reddit'de Share RSS Feeds Subscribe!

Powrót
Przeglądasz witrynę jako gość.
Dlatego zachęcamy do rejestracji lub do zalogowania się.

Informacja
Użytkownicy z rangą Gość nie mogą dodawać komentarzy.