Menu

Download

Dziś nas odwiedzili:
crashed323, symoni2008, piotrus190211, riko121, lukaszek17, zbyszekr, swen7, Fajur, gumis22, Tizian, tlisiak80, agary35, EdiMar, lukasz10051, ROBERT POZNAŃ, ritmo60cl, bansior01, amfa07, karol2005, santa3, luizatomek, Kozlowska, barteklublin111, masterp, maadziiaa30, tomczyk3, alsmir, dungs, eneasz, fox57, klymvm, schabu72, Grav1ty, tadeuszo7, Prospector00, ralf1976, Proton_1x, Vanisz, cycek77, konradko77, Fedor11, gress19, pychu007, wlodek66, rymos, gawron.1983, OWC1, momo1410, antczaki, xmiro, priv, Ambasadoor70, pawela, zpcytadela, drls1989, marcindziki1, kudek01, brovarek123, waawr, circus, ramzes542, bollos, victory04, djlemur, mariant, Thalia1, anita13, twingo25, slawo79, lucky170, raabartek, geniu7, Siegfried, johnyb70, yaro97, Karlos2150, pitereku, Manias01, krepel, MIREK11111, adamusasior122, DeejayMalec, topolski, kwasek, areczek971, solgerx, pentor, gento, dtox1, tomaszo1948, Feniks101, andrzejpfx, crownart, jacenty179, robek4, lonej1, 75tofik, rafgraf, tobi180, sinus421, tomek i ania, skima112, zakopne, snayper, gruby1001, ulaghost, pika01, Estek1, Bogkowa, aszk, amilo, przemko1022, JoXs, skajla, topikos, gregorcio, 1marek1, 1boniek1, kamyk70, qwerty1945, kriss86pl, matey777, pionek21, seba512, prularis, szukisek, Tomciu78, marekdudi, pirek, Grad13, pinoter58, rufinone, monsun65, pepik11, akak1, rutkowski20, FALKON69, ARTUROSE, jedrek00711, Dawid88Diablo, mirunia22, cze, malczyce, silviulian, kris2008, lepper, Sarima, mondia, esy, skyluk, rumak83, jano666, eree, mach12, sproket1, picer123, dejw, micpie8, Trytonik, misiu1185, baraxx, narkusdwa, Lukas8, bronek65, lordsiur, buruburu, vermigor, robaczio9, bulkotnik, biggreg, piterd14, Zelwik, yonk, ewa1971, arrtturro76, Liar, lauratcv, Sypi, MarczelM, sir daro 24, Sdrov, P.P.P., waclaw, ziuta, piurored123, spoli, miro, kasi, arkadiusz271, mp3de, GunHead, 17051970, machoney1920, sharp_99, dorkasevi, cxy35, celin, bylik71, wotar, jupkeennss, bil, syaro, pipipiotr, tedxvs, wytaczarz44, bydgoszcz22, darekbus, igi2, jarro40, mart1nof, tom7517, joanna72, angelo1969, RysioJanusz, Lorenz, kajtek42, Erik, kat666, aj 1971, jinks13, mart73, lauenburg, Cirrus, serrafus, krzycho1985, splittt, jpwko, mogo76, EFBOT, whisky65, artekplay, weglownia, jusia266, andjey, Bartekn90, xard2906, jurczyna, Auto-Lux, buku54, jarecki500, mariusz242, slawol666, Adi73, iwonaro, Kamirllo105, fmondeo, maruda3773, ahmedibnfahlan, Svilesis, Zakapior77, virginiaa, gbur17, cwiras22, aspekt2004, Seba1984r, karol80, Estebes777, szturmen, Johanson325, adox80, aga2.05, puedros57, adikos34, miodowe

Archiwum:
Grudzień 2016 (202)
Listopad 2016 (2438)
Październik 2016 (1967)
Wrzesień 2016 (1859)
Sierpień 2016 (2523)
Lipiec 2016 (2609)


Pokaż wszystkie tagi:
Wejścia na Vorek.pl z:
{referer}



NABÓR NA STANOWISKO


MODERATOR        UPLOADER

Autor: neo25
Data: 18 Maj 2012
Kategoria: FILMY » Seriale
0


Fringe: Na Granicy Światów  / Fringe (2008 - 2011) PL.PDTV/HDTV.XviD / Lektor PL {sezon 1,2,3}


INFO:

Serial telewizyjny opowiadający o agentce FBI Olivii Dunham (Anna Torv), która zostaje zmuszona do połączenia sił ze zinstytucjonalizowanym naukowcem, drem Walterem Bishopem (John Noble) i jego synem, niepokornym geniuszem Peterem Bishopem (Joshua Jackson). Tylko wspólnie mogą rozwiązać tajemnicę serii zdarzeń związanych ze zjawiskami paranormalnymi.




DANE TECHNICZNE:
Video
Format                                   : MPEG-4 Visual
Format settings, Matrix                  : Default (MPEG)
Codec ID/Hint                            : XviD
Duration                                 : 48mn 37s
Bit rate                                 : 880 Kbps
Width                                    : 640 pixels
Height                                   : 352 pixels
Display aspect ratio                     : 16:9
Frame rate                               : 25.000 fps
Color space                              : YUV
Chroma subsampling                       : 4:2:0
Bit depth                                : 8 bits
Scan type                                : Progressive
Compression mode                         : Lossy
Bits/(Pixel*Frame)                       : 0.156
Stream size                              : 306 MiB (87%)
Writing library                          : XviD 1.2.0.dev47 (UTC 2006-11-01)

Audio
Format                                   : MPEG Audio
Mode                                     : Joint stereo
Mode extension                           : MS Stereo
Codec ID                                 : 55
Codec ID/Hint                            : MP3
Duration                                 : 48mn 37s
Bit rate mode                            : Variable
Bit rate                                 : 114 Kbps
Nominal bit rate                         : 128 Kbps
Channel(s)                               : 2 channels
Sampling rate                            : 48.0 KHz
Compression mode                         : Lossy
Stream size                              : 39.7 MiB (11%)
Alignment                                : Aligned on interleaves
Interleave, duration                     : 24 ms (0.60 video frame)




Fringe: Na Granicy Światów  / Fringe (2008 - 2011) PL.PDTV/HDTV.XviD / Lektor PL {sezon 1,2,3}






Download - Tylko 1 Link: Bez Wypakowywania i błędów CRC!



Hellshare.pl

SEZON 1 - Lektor PL

Aby zobaczyć ukryty tekst musisz być zalogowany, jeżeli nie masz konta zarejestruj się!


SEZON 2 - Lektor PL

Hellshare.pl

Aby zobaczyć ukryty tekst musisz być zalogowany, jeżeli nie masz konta zarejestruj się!


SEZON 3 - Lektor PL

Hellshare.pl

Aby zobaczyć ukryty tekst musisz być zalogowany, jeżeli nie masz konta zarejestruj się!







###INFO###

Mój upload |*| My Upload
Hasło: BRAK! |*| Password: No PASSWORD!
Można pobierać na przemian |*| All links are interchangeable
Tylko 1 Link! |*| Only 1 Link!



Artykuł edytował: neo25 - 18 Maj 2012
Powód: Dodano Odcinek S03E16


Podziel się !

Delicious'da Share  Share on Facebook  Friendfeed Share  Google Shared  StubmleUpon'da Share  Digg'de Share  Netvibes'de Share  Reddit'de Share RSS Feeds Subscribe!

Powrót
Przeglądasz witrynę jako gość.
Dlatego zachęcamy do rejestracji lub do zalogowania się.

Informacja
Użytkownicy z rangą Gość nie mogą dodawać komentarzy.