Menu

Download

Dziś nas odwiedzili:
Archiwum:
Grudzień 2016 (225)
Listopad 2016 (2437)
Październik 2016 (1966)
Wrzesień 2016 (1859)
Sierpień 2016 (2523)
Lipiec 2016 (2609)


Pokaż wszystkie tagi:
Wejścia na Vorek.pl z:
{referer}



NABÓR NA STANOWISKO


MODERATOR        UPLOADER



To ja, złodziej (2000) (DVDRip)


To.Ja.Zlodziej.2000.PL.DVDRip.x264-PolishET



reżyseria: Jacek Bromski
scenariusz: Piotr Wereśniak, Jacek Bromski
premiera: 16 czerwca 2000 (Polska)
produkcja: Polska
gatunek: Komedia, Sensacyjny

Jajo to zaniedbany chłopak z rozbitej rodziny. Wzorem życiowego sukcesu jest dla niego "profesja" złodzieja samochodów w elitarnym gangu Maksa. Przed złodziejską karierą przestrzega bohatera właściciel warsztatu samochodowego, w którym on pracuje. Jajo, chcąc zdobyć respekt Maksa, kradnie wspaniałego jaguara, czym jednak niechcący naraża się gangsterowi.



OBSADA

Janusz Gajos: Wyskocz
Daniel Olbrychski: Kompozytor Seweryn
Anna Romantowska: Maria
Jan Frycz: Cygan
Krzysztof Globisz: Gomez
Jan Urbański: Jajo
Zbigniew Dunin-Kozicki: Pyza
Maciej Kozłowski: Maks
Krystyna Feldman: babcia

PARAMETRY

Video
Format: AVC
Format/Info: Advanced Video Codec
Format profile: [email protected]
Format settings, CABAC: Yes
Format settings, ReFrames: 16 frames
Muxing mode: Container [email protected]
Codec ID: V_MPEG4/ISO/AVC
Duration: 1h 36mn
Bit rate: 1 785 Kbps
Nominal bit rate: 1 824 Kbps
[b]Width:
624 pixels
Height: 336 pixels
Display aspect ratio: 1.857
Frame rate: 25.000 fps
Resolution: 24 bits
Colorimetry: 4:2:0
Scan type: Progressive
Bits/(Pixel*Frame): 0.341
Stream size: 1.21 GiB (88%)


Audio
Format: AC-3
Format/Info: Audio Coding 3
Codec ID: A_AC3
Duration: 1h 36mn
Bit rate mode: Constant
Bit rate: 192 Kbps
Channel(s): 6 channels
Channel positions: Front: L C R, Surround: L R, LFE
Sampling rate: 48.0 KHz
Stream size: 133 MiB (10%)


DOWNLOAD/POBIERZ

Hotfile
200MB PART

Aby zobaczyć ukryty tekst musisz być zalogowany, jeżeli nie masz konta zarejestruj się!


RapidShare
200MB PART

Aby zobaczyć ukryty tekst musisz być zalogowany, jeżeli nie masz konta zarejestruj się!



Podziel się !

Delicious'da Share  Share on Facebook  Friendfeed Share  Google Shared  StubmleUpon'da Share  Digg'de Share  Netvibes'de Share  Reddit'de Share RSS Feeds Subscribe!

Powrót
Przeglądasz witrynę jako gość.
Dlatego zachęcamy do rejestracji lub do zalogowania się.

Informacja
Użytkownicy z rangą Gość nie mogą dodawać komentarzy.