Menu

Download

Dziś nas odwiedzili:
Archiwum:
Grudzień 2016 (906)
Listopad 2016 (2431)
Październik 2016 (1961)
Wrzesień 2016 (1857)
Sierpień 2016 (2521)
Lipiec 2016 (2605)


Pokaż wszystkie tagi:
Wejścia na Vorek.pl z:
{referer}



NABÓR NA STANOWISKO


MODERATOR        UPLOADER



Hans Kloss Stawka większa niż śmierć 2012 [DVDRip.XviD] [PL]

produkcja: Polska
gatunek: Sensacyjny, Wojenny
data premiery: 2012-03-16
reżyseria: Patryk Vega
scenariusz: Władysław Pasikowski, Przemysław Woś
zdjęcia: Mirosław Brożek
czas trwania: 103 min.

Opis:

Hans Kloss powraca, aby wyjaśnić jedną z największych tajemnic II wojny światowej. Nowe przygody agenta J-23 rozgrywają się zarówno w czasie wojny, jak i kilkadziesiąt lat po jej zakończeniu...

Hans Kloss Stawka większa niż śmierć 2012 [DVDRip.XviD] [PL]Hans Kloss Stawka większa niż śmierć 2012 [DVDRip.XviD] [PL]

Obsada:

Stanisław Mikulski ... Hans Kloss
Emil Karewicz ... Hermann Brunner
Tomasz Kot ... Młody Hans Kloss
Piotr Adamczyk ... Młody Hermann Brunner
Daniel Olbrychski ... Werner
Marta Żmuda Trzebiatowska ... Elsa
Anna Szarek ... Ingrid
Wojciech Mecwaldowski ... Ringle
Grzegorz Kowalczyk ... Mischke
Jerzy Bończak ... Koch

Dane techniczne:

Format : AVI
Format/Info : Audio Video Interleave
File size : 696 MiB
Duration : 1h 43mn
Overall bit rate : 938 Kbps

Video
ID : 0
Format : MPEG-4 Visual
Format profile : Advanced [email protected]
Format settings, BVOP : 2
Format settings, QPel : No
Format settings, GMC : No warppoints
Format settings, Matrix : Default (MPEG)
Codec ID : XVID
Codec ID/Hint : XviD
Duration : 1h 43mn
Bit rate : 797 Kbps
Width : 640 pixels
Height : 352 pixels
Display aspect ratio : 16:9
Frame rate : 25.000 fps
Color space : YUV
Chroma subsampling : 4:2:0
Bit depth : 8 bits
Scan type : Progressive
Compression mode : Lossy
Bits/(Pixel*Frame) : 0.142
Stream size : 592 MiB (85%)
Writing library : XviD 64

Audio
ID : 1
Format : MPEG Audio
Format version : Version 1
Format profile : Layer 3
Codec ID : 55
Codec ID/Hint : MP3
Duration : 1h 43mn
Source duration : 1h 43mn
Bit rate mode : Constant
Bit rate : 128 Kbps
Channel(s) : 2 channels
Sampling rate : 48.0 KHz
Compression mode : Lossy
Stream size : 95.0 MiB (14%)
Alignment : Split accross interleaves
Interleave, duration : 24 ms (0.60 video frame)
Writing library : LAME

EGOFIES:
Aby zobaczyć ukryty tekst musisz być zalogowany, jeżeli nie masz konta zarejestruj się!

CATSHARE:
Aby zobaczyć ukryty tekst musisz być zalogowany, jeżeli nie masz konta zarejestruj się!

HELLSHARE:
Aby zobaczyć ukryty tekst musisz być zalogowany, jeżeli nie masz konta zarejestruj się!



Podziel się !

Delicious'da Share  Share on Facebook  Friendfeed Share  Google Shared  StubmleUpon'da Share  Digg'de Share  Netvibes'de Share  Reddit'de Share RSS Feeds Subscribe!

Powrót
Przeglądasz witrynę jako gość.
Dlatego zachęcamy do rejestracji lub do zalogowania się.

  • 6 Luty 2013 11:47
  • Zarejestrowany: 2.09.2010
  • Artykułów: 0
  • Komentarzy: 3
  • Status:
  • Offline
KOPIA DOBRA ALE CAŁY FILM JAKIŚ DUPEK OPOWIADA O SCENACH FILMU.
Informacja
Użytkownicy z rangą Gość nie mogą dodawać komentarzy.