Menu

Download

Dziś nas odwiedzili:
antczaki, lauenburg, malczyce, Max Killer, ulaghost, ARTUROSE, mardra1, marcin_marcin, maruda3773, jarek861029, KOKUS11, 123456, Proton_1x, sinus421, rutkowski20, Sypi, mani4444, marcindziki1, wlodek79, Majki, zpcytadela, vampire69, tomek i ania, Patrico24, brzoskwinellla, ketez, demon190219, rafgraf, lukaszemila, bulkotnik, biznesmen66, pika01, weglownia, saper7206, Krzysztof1973, martin7011, cxy35, bob, 0wrsd0, pawelkapica, 1boniek1, bardini, wojtas1000, maadziiaa30, gento, fox57, xard2906, Thalia1, hahn, pit.7777, moje401, madgajwer, picer123, Estek1, dungs, Iva911, pawulon67, Uszka2001, Auto-Lux, womi10, arkadiusz271, CCC59KXJ, smina, Painkiller212, gerard, bronek65, ziuta, MISIU11, wasyl75, Lorenz, seba512, Feniks101, lukasz666666, andrzejpfx, kat666, JurekO, bodekk2, Ireland29, plama79, PadrePio, anetam1, tirak67, foch5r, pietiak77, bw1980, jacekgmk, bastion4, gargamel_50, mlody2205, narkusdwa, klymvm, areczek971, misio1960, kkk244240, raptyk, pio.sub, marecki28, Villa122878, yaro97, lotnikow45, rodzynek1983, renka, joyeczek, drenn1, zbivor, lucky170, jano666, laewa, zosiaz, xxvxx5, pysiu_m, czechosos, coruble, lauratcv, Raf.36, sayo300, joanna72, buruburu, sailent, anetpio, lonej1, matey777, adamusasior122, symoni2008, spot2302, pawciopokemon, cyton, figo73, topolski, zbyszekr, amilo, kwasek, pbpbpbpbpb, marekdudi, glut1510, Liar, keram, levy52, artekplay, igi2, cycek77, huano877, sharp_99, lepper, gruby1001, Tadex2014, yonk, cichyd1, fazzy99, pawo, amfa07, wytaczarz44, solgerx, hellmucik, jurekaw, jedrek00711, karton1, trybsiu, Grzegorz72, MarczelM, lenny79, Finder, bylik71, wlodek66, skyluk, brovarek123, adam101102, osa31, JoXs, pawnan, werona1, 3366, sandoran1962, Marmur, mrozek8, szybki811, tomaszo1948, bart85, leszek2009, karbor83, skarabeusz, Manias01, szakal, bodzio1025, wwwalka, Fedor11, lukaszek17, daizor, zakopne, krysur2001, Amnessia85, jinks13, krepel, raabartek, cze, pj_79, markus67, kanzas, lyser, siwy710, adamczar, mwita3, Grad13, bolo335, sandacz53, tat4, ralf1976, Trytonik, bogdanbig, szulerus, stanley_pl, KECAJ_18, weenzer, tyfutenkul, mahone78, adamciu, Beno182210, ango, tomaszlegion, clio2004, Mario090673, qczi, Vanisz, madein77, geniusloci, jerry1013, mpawel71, seat1234, adox80, mart1nof, mondia, zibim, rumak83, karol2005, jac612, mariant, piotrus190211, czesie_k, monsun65, dulo123, abaabaaba, mp3de, guma, elwro, jeak, zbeer, artfrst, podol76, johnyb70, janusz56, qwerty1945, andy08, Sdrov, wfman, Krakus51, piterd14, kudek01, pychu007, wotar, puszek67, majkel_gti, trez, GunHead, musio666, iruss3, balanga11, ASTERGO, akak1, grygol2, jasielec, sita1204, 17051970, rysiek975, huarez44, kamelot2012, papay100, adasek.u, darekbus, Bartekn90, pepik11, mr36, apochec, wojtasg, Lukas8, robaczio9, zibiguzik, Cirrus, machoney1920, ryszardos69, nonez, mirek4321, mart73, splittt, mogo76, angelo1969, spoli, jusia266, kajtek42, EdiMar, andjey, pipipiotr, P.P.P., tedxvs, pitereku, lorak56, rudagemba, crownart, bazarek, buku54, szturmen, jarecki500, rencista39, aspekt2004, mariusz242, emilianox, Kamirllo105, aj 1971, konradko77, karas273, victory04, Zelwik, gbur17, tom7517, biggreg, Zakapior77, crashed323, and20, ramon, virginiaa, miesniak, skajla, miodowe, EFBOT, Svilesis

Archiwum:
Grudzień 2016 (157)
Listopad 2016 (2438)
Październik 2016 (1967)
Wrzesień 2016 (1859)
Sierpień 2016 (2523)
Lipiec 2016 (2609)


Pokaż wszystkie tagi:
Wejścia na Vorek.pl z:
{referer}



NABÓR NA STANOWISKO


MODERATOR        UPLOADER



Jesteś Bogiem (2012) [DVDSCR.XviD] [PL]

Jesteś Bogiem (2012) [DVDSCR.XviD] [PL]


Tytuł: Jesteś Bogiem
Ocena: IMDB - 7.5/10 (233), Filmweb - 7.8/10 (24.754)
Produkcja: Polska
Gatunek: Biograficzny, Muzyczny, Dramat społeczny
Czas trwania: 112 min.
Premiera: 21.09.2012 - Polska, 07.05.2012 - Świat
Reżyseria: Leszek Dawid
Scenariusz: Maciej Pisuk

Jesteś Bogiem w reżyserii Leszka Dawida, to oczekiwany od blisko dekady film o legendarnej grupie
Paktofonika, która na zawsze zmieniła oblicze polskiego hip-hopu. Za sprawą niezwykłej historii
Piotra Łuszcza - Magika (Marcin Kowalczyk), Sebastiana Salberta - Rahima (Dawid Ogrodnik)
i Wojciecha Alszera - Fokusa (Tomasz Schuchardt) rzesze wiernych fanów PFK, a także kinomani spragnieni
prawdziwego obrazu Polski, prześledzą losy trzech kumpli z Mikołowa i Katowic, którzy dzięki oryginalnymm
utworom, takim jak słynny "Jestem Bogiem", stali się głosem pokolenia młodych Polaków.
Paktofonika powstała w 1998 roku, a jej nazwę, oznaczającą "pakt zawiązany przy brzmieniu głośnika",
wymyślili Magik i Rahim. Trzy wydawnictwa zespołu: "Kinematografia", mini album "Jestem Bogiem"
oraz "Archiwum kinematografii" sprzedały się w gigantycznych nakładach. Wkrótce po premierze
"Kinematografii" fanami Paktofoniki wstrząsnęła wiadomość o samobójczej śmierci Magika.

Obsada:

Marcin Kowalczyk ... Magik
Dawid Ogrodnik ... Rahim
Tomasz Schuchardt ... Fokusa
Arkadiusz Jakubik ... Gustaw Zarzycki
Marcin Dorocinski ... Manager
Przemyslaw Bluszcz ... Ojciec Magika
Halina Bednarz ... Matka Magika
Magdalena Kacprzak ... Magda

Dane techniczne:

Format : AVI
Format/Info : Audio Video Interleave
File size : 796 MiB
Duration : 1h 52mn
Overall bit rate : 987 Kbps
Writing application : VirtualDubMod 1.5.10.2 (build 2542/release)
Writing library : VirtualDubMod build 2542/release

Video
ID : 0
Format : MPEG-4 Visual
Format profile : Advanced [email protected]
Format settings, BVOP : 2
Format settings, QPel : No
Format settings, GMC : No warppoints
Format settings, Matrix : Default (H.263)
Codec ID : XVID
Codec ID/Hint : XviD
Duration : 1h 52mn
Bit rate : 849 Kbps
Width : 608 pixels
Height : 336 pixels
Display aspect ratio : 16:9
Frame rate : 25.000 fps
Color space : YUV
Chroma subsampling : 4:2:0
Bit depth : 8 bits
Scan type : Progressive
Compression mode : Lossy
Bits/(Pixel*Frame) : 0.166
Stream size : 685 MiB (86%)
Writing library : XviD 1.2.1 (UTC 2008-12-04)

Audio
ID : 1
Format : MPEG Audio
Format version : Version 1
Format profile : Layer 3
Mode : Joint stereo
Mode extension : MS Stereo
Codec ID : 55
Codec ID/Hint : MP3
Duration : 1h 52mn
Bit rate mode : Constant
Bit rate : 128 Kbps
Channel(s) : 2 channels
Sampling rate : 48.0 KHz
Compression mode : Lossy
Stream size : 103 MiB (13%)
Alignment : Aligned on interleaves
Interleave, duration : 40 ms (1.00 video frame)
Interleave, preload duration : 504 ms
Writing library : LAME3.99r
Encoding settings : -m j -V 4 -q 2 -lowpass 17 -b 128



Aby zobaczyć ukryty tekst musisz być zalogowany, jeżeli nie masz konta zarejestruj się!





Podziel się !

Delicious'da Share  Share on Facebook  Friendfeed Share  Google Shared  StubmleUpon'da Share  Digg'de Share  Netvibes'de Share  Reddit'de Share RSS Feeds Subscribe!

Powrót
Przeglądasz witrynę jako gość.
Dlatego zachęcamy do rejestracji lub do zalogowania się.

Informacja
Użytkownicy z rangą Gość nie mogą dodawać komentarzy.