Menu

Download

Dziś nas odwiedzili:
Archiwum:
Grudzień 2016 (703)
Listopad 2016 (2434)
Październik 2016 (1961)
Wrzesień 2016 (1857)
Sierpień 2016 (2521)
Lipiec 2016 (2605)


Pokaż wszystkie tagi:
Wejścia na Vorek.pl z:
{referer}



NABÓR NA STANOWISKO


MODERATOR        UPLOADER



Wojna żeńsko-męska (2011) BluRay 720p x264 AC3-DX Film Polski

Wojna żeńsko-męska (2011) BluRay 720p x264 AC3-DX Film Polski

reżyseria: Łukasz Palkowski
scenariusz: Hanna Samson
premiera: 25 lutego 2011 (Polska)
produkcja: Polska
gatunek: Komedia obycz.


To film dla bezpruderyjnego widza, otwartego na nowe doznania także damsko-męskie. Historia bezrobotnej dziennikarki, która walczy z nadwagą i brakami na koncie skuteczniej niż Bridget Jones i choć o mężczyznach wie znacznie więcej niż wszystkie Lejdis razem wzięte, znalezienie tego właściwego będzie wymagało od niej nie lada wysiłku. Szczególnie, że jej dorosła córka nie tylko bezlitośnie ocenia jej poczynania, ale sama liczy na radę matki w miłosnych perypetiach. W roli matki i córki Sonia Bohosiewicz i jej młodsza siostra Maja. Zbliża się decydująca bitwa w odwiecznej wojnie żeńsko-męskiej. Kto z tego starcia wyjdzie zwycięsko?


General
Format : Matroska
File size : 6.12 GiB
Duration : 1h 47mn
Overall bit rate : 8 171 Kbps
Writing library : libebml v0.7.7 + libmatroska v0.8.1
Video #1
ID : 1
Format : AVC
Format/Info : Advanced Video Codec
Format profile : [email protected]
Format settings, CABAC : Yes
Format settings, ReFrames : 4 frames
Muxing mode : Container [email protected]
Codec ID : V_MPEG4/ISO/AVC
Duration : 1h 47mn
Bit rate : 7 369 Kbps
Nominal bit rate : 7 825 Kbps
Width : 1 280 pixels
Height : 578 pixels
Display aspect ratio : 2.2:1
Frame rate : 23.976 fps
Resolution : 24 bits
Colorimetry : 4:2:0
Scan type : Progressive
Bits/(Pixel*Frame) : 0.415
Stream size : 5.52 GiB (90%)
Writing library : x264 core 112
Audio #2
ID : 2
Format : AC-3
Format/Info : Audio Coding 3
Codec ID : A_AC3
Duration : 1h 47mn
Bit rate mode : Constant
Bit rate : 640 Kbps
Channel(s) : 6 channels
Channel positions : Front: L C R, Surround: L R, LFE
Sampling rate : 48.0 KHz
Stream size : 491 MiB (8%)

Wojna żeńsko-męska (2011) BluRay 720p x264 AC3-DX Film PolskiWojna żeńsko-męska (2011) BluRay 720p x264 AC3-DX Film Polski
Wojna żeńsko-męska (2011) BluRay 720p x264 AC3-DX Film PolskiWojna żeńsko-męska (2011) BluRay 720p x264 AC3-DX Film Polski

Próbka :

Aby zobaczyć ukryty tekst musisz być zalogowany, jeżeli nie masz konta zarejestruj się!


Aby zobaczyć ukryty tekst musisz być zalogowany, jeżeli nie masz konta zarejestruj się!




Podziel się !

Delicious'da Share  Share on Facebook  Friendfeed Share  Google Shared  StubmleUpon'da Share  Digg'de Share  Netvibes'de Share  Reddit'de Share RSS Feeds Subscribe!

Powrót
Przeglądasz witrynę jako gość.
Dlatego zachęcamy do rejestracji lub do zalogowania się.

Informacja
Użytkownicy z rangą Gość nie mogą dodawać komentarzy.