Menu

Download

Dziś nas odwiedzili:
Archiwum:
Grudzień 2016 (963)
Listopad 2016 (2431)
Październik 2016 (1961)
Wrzesień 2016 (1857)
Sierpień 2016 (2521)
Lipiec 2016 (2605)


Pokaż wszystkie tagi:
Wejścia na Vorek.pl z:
{referer}



NABÓR NA STANOWISKO


MODERATOR        UPLOADER



The Killer Inside Me 2010 LiMiTED DVDRip XviD



The Killer Inside Me 2010 LiMiTED DVDRip XviD


Info:
produkcja: USA
gatunek: Dramat, Kryminał, Thriller
data premiery: 24 stycznia 2010 (Świat)
reżyseria: Michael Winterbottom
scenariusz: John Curran, Michael Winterbottom
zdjęcia: Marcel Zyskind
muzyka: Melissa Parmenter
czas trwania: 109min
srednia ocena: 8,1/10

Opis:
Lou Ford (Casey Affleck) jest zastępcą szeryfa w małym mieście, w stanie Teksas. Cieszy się opinią cierpliwego i rozważnego funkcjonariusza. Lou jednak skrywa swoją prawdziwą naturę. Okazuje się być bezdusznym i bezlitosnym, socjopatycznym mordercą. Swoje nienaturalne, sadomasochistyczne żądze wyładowuje na prostytutce (Jessica Alba), z którą regularnie się spotyka. Czy ktokolwiek powstrzyma szaleńca?

pewny upload 100%work 10% Danych naprawczych :)
party po 400MB
Dwa serwery można ściągać na przemiennie ;)



Obsada:
Jessica Alba - Joyce Lakeland
Casey Affleck - Lou Ford
Kate Hudson - Amy Stanton
Tom Bower - Szeryf Bob Maples

Dane Techniczne:
General:
Format : AVI
Format/Info : Audio Video Interleave
File size : 700 MiB
Duration : 1h 49mn
Overall bit rate : 896 Kbps
Writing application : VirtualDubMod 1.5.10.2 (build 2542/release)
Writing library : VirtualDubMod build 2542/release

Video:
ID : 0
Format : MPEG-4 Visual
Format profile : [email protected]
Format settings, BVOP : Yes
Format settings, QPel : No
Format settings, GMC : No warppoints
Format settings, Matrix : Default (H.263)
Muxing mode : Packed bitstream
Codec ID : XVID
Codec ID/Hint : XviD
Duration : 1h 49mn
Bit rate : 774 Kbps
Width : 652 pixels
Height : 278 pixels
Display aspect ratio : 2.35:1
Frame rate : 23.976 fps
Resolution : 24 bits
Colorimetry : 4:2:0
Scan type : Progressive
Bits/(Pixel*Frame) : 0.178
Stream size : 605 MiB (86%)
Writing library : XviD 1.2.1 (UTC 2008-12-04)

Audio:
ID : 1
Format : MPEG Audio
Format version : Version 1
Format profile : Layer 3
Codec ID : 55
Codec ID/Hint : MP3
Duration : 1h 49mn
Bit rate mode : Constant
Bit rate : 112 Kbps
Channel(s) : 2 channels
Sampling rate : 44.1 KHz
Resolution : 16 bits
Stream size : 87.5 MiB (13%)
Alignment : Split accross interleaves
Interleave, duration : 42 ms (1.00 video frame)
Interleave, preload duration : 500 ms
Writing library : LAME3.98r
Encoding settings : -m j -V 4 -q 2 -lowpass 15.6 -b 112
[ ]YES [X]NO


Hotfile:

Aby zobaczyć ukryty tekst musisz być zalogowany, jeżeli nie masz konta zarejestruj się!


Fileserve
Aby zobaczyć ukryty tekst musisz być zalogowany, jeżeli nie masz konta zarejestruj się!



Podziel się !

Delicious'da Share  Share on Facebook  Friendfeed Share  Google Shared  StubmleUpon'da Share  Digg'de Share  Netvibes'de Share  Reddit'de Share RSS Feeds Subscribe!

Powrót
Przeglądasz witrynę jako gość.
Dlatego zachęcamy do rejestracji lub do zalogowania się.

Informacja
Użytkownicy z rangą Gość nie mogą dodawać komentarzy.