Menu

Download

Dziś nas odwiedzili:
duch48, trwsxd, aabuliaa, wytaczarz44, slawekg, xxvxx5, zable, jano666, andy01, bed4bed, CYRAZEK, mariog1909, GunHead, figo73, wiktor32, Sypi, fazzy99, urszula64, sir daro 24, jmmario1, vorek6108, dzobi, piterd14, andimar, jacekgmk, mariuszfor73, jerry1013, Crissis, danix20, drls1989, Irek783, sayo300, zachod25, ulaghost, DAMIAN1129, atenom333, pawciopokemon, romekfenix, rympel1, trafic, 3366, MISIU11, skyluk, artekplay, andrzejxxxxx, mlecyk, djmichu, dariuszlbn, piterolo74, slay25, pancerniak, glatek12, martin125, mythos2015, gluchy22, tronsark, lukass, TYGRYSEK70, plama79, pika01, adminek14, acer, Gabu, elektryk024, MAANKASO, lordsiur, Painkiller212, krepel, hondula2, solgerx, perez_2, MIKE8668, narkusdwa, dariusz1972, ahagner, bronek65, greg37, lukgad, chris66, jeak, JurekO, lepper, golden2, samolot1968, gambits, irek1112, ralf100, parowens, Pafelek1, Uszka2001, sylwia-kot, judar, kojot, Grzegorz72, luksio42, zibim, pitereku, djlemur, KUKA1, krzychu1981, topp2p, tomaszo1948, grzesiek99556, tat4, ojom79, igi2, Mascarpone, intermilano, aga2.05, 4lolek4, geniusloci, jan83, mondia, amfa07, greg58, Bodzio57, waldemarp, huck56, Prezes28, andrzejpfx, hellmucik, oartu, romanw, oakland, jarecki500, jacek40old, Vanisz, marekebe, bokser123, schabu72, bagum, jupkeennss, agnuszka, Dom612, terry258, hardcore3791, dj den, matey777, a.w.14, GREGORHIT, radzio89, ralf1976, lokutus3, ango, zbeer, esbo, madcat_szn, dulo123, MAŁGORZATA J, buba48, rottary, piotrek38, czesie_k, dezak18, dzeva, grygol2, serrafus, virginiaa, bardini, toczev, andrzej0214, johnson76, daizor, Auto-Lux, adam1neo, wojtekswn, raabartek, and20, jace11, harcmistrz, bart85, Beno182210, martina52, balanga11, adamo, wojtasg, tobi180, arkadiusz271, baraxx, OenSan, zet25, remington692, ASTERGO, adam13, Fedor11, cukierek-85, mirekbmw, Johnyak, przemo_geremi, maniek2203, Krakus51, Siegfried, nsmrowka, pionek21, zulus28, grzes997, jarro40, Grad13, siwy710, tadeuszo7, sharp_99, anita13, moly12, slawko2, lauratcv, sydney112, kat666, bodekk2, zbigniew.cybulski, marcinero22, texastt, weenzer, shivo, Velii65, piwosz_m, 17051970, MIRAS777, mrozek8, Sonnebogen, jan71, DANIEL_WOROSZKO, KrissA, Flashek1, blinder, buku54, ryba2010, kiecio, marecki2017, kriss86pl, FALKON69, Wodecki, kielek99, kamelot2012, kajtek42, mpawel71, sandacz53, xcess, Manias01, pipipiotr, Creative, kubutek77, mundi718, wojtaszek13, gento, 75tofik, Marek.b58, maciej1900, AtlasGTX, bartecki7, beatawielka, andy08, wiedy, Lukas8, Savicz, RUFO, symoni2008, raimova, foch5r, willi1953, pestka210, robus271, krriss, renka, tankred22, Rad76, jusia266, spoli, mr36, robertini1, ryszardos69, mogo76, Cirrus, robin163, puszek67, wiesiek77, wiesio598, 56narcyz, jurczyna, pepik11, czasnasen1, tedxvs, witol, burdys, ra88, klantor, mirek4321, splittt, jurek50, xxl9, angelo1969, jedrek00711, dalib, roro2, itulec, EdiMar, wotar, iwonaro, smithi, kasi, alex, jpwko, ziuta, romuskat, andjey, aj3154, zibiguzik, bonek1966, TRYZERO, mardra1, slawek 58, jszlom, ruptak, Bartekn90, 123nowy, bardi86, mariusz242, mks, dj.mario, EFBOT, pushbroom, azyl, marloo19tg, mariant, xard2906, victory04, gresiek1, gbur17, just.83, djes82, bogdan85, mlody2205, mp3de, patrykowo1001, ggtomy, adas236, aspekt2004, biznesmen66, kleopatra77, celin, asand60, Trytonik, Svilesis, zxc74, SARCIA, JoXs, pbpbpbpbpb

Archiwum:
Marzec 2017 (3265)
Luty 2017 (3329)
Styczeń 2017 (3218)
Grudzień 2016 (2843)
Listopad 2016 (2425)
Październik 2016 (1959)


Pokaż wszystkie tagi:
Wejścia na Vorek.pl z:
{referer}



NABÓR NA STANOWISKO


MODERATOR        UPLOADER



The Joneses (2009) 720p BRRip Napisy PL

The Joneses (2009) 720p BRRip Napisy PL

PRODUKCJA : USA
GATUNEK : Dramat
CZAS TRWANIA : 96 minut
DATA PREMIERY : 13.09.2009 - Świat


OPIS: Idealna para Steve i Kate Jones oraz ich wspaniałe nastoletnie dzieci: Jenn i Mick są przedmiotem zazdrości klasy wyższych sfer, drobnomieszczańskiego sąsiedztwa, w tym rodziny McMansions. Kate jest dyktatorem mody - piękna, seksowna, i ubrana z góry do dołu w markowe ciuchy. Steve jest podziwianym biznesmenem, który posiada dosłownie wszystko...



The Joneses (2009) 720p BRRip Napisy PL

The Joneses 2009 PL SUBBED 720p BRRip XviD AC3-LEGi0N

Video
Format: MPEG-4 Visual
Format profile: Streaming [email protected]
Format settings, BVOP: Yes
Format settings, QPel: No
Format settings, GMC: No warppoints
Format settings, Matrix: Default (H.263)
Muxing mode: Packed bitstream
Codec ID: XVID
Bit rate: 3 078 Kbps
Width: 1 280 pixels
Height: 544 pixels
Display aspect ratio: 2.35
Frame rate: 23.976 fps
Resolution: 24 bits
Colorimetry: 4:2:0
Scan type: Progressive
Bits/(Pixel*Frame): 0.184
Stream size: 2.06 GiB (87%)

Audio
Format: AC-3
Bit rate mode: Constant
Bit rate: 448 Kbps
Channel(s): 6 channels
Sampling rate: 48.0 KHz
Stream size: 307 MiB (13%)



.:: DOWNLOAD ::.

# W JEDNYM PLIKU #
Aby zobaczyć ukryty tekst musisz być zalogowany, jeżeli nie masz konta zarejestruj się!


No pass



Podziel się !

Delicious'da Share  Share on Facebook  Friendfeed Share  Google Shared  StubmleUpon'da Share  Digg'de Share  Netvibes'de Share  Reddit'de Share RSS Feeds Subscribe!

Powrót
Przeglądasz witrynę jako gość.
Dlatego zachęcamy do rejestracji lub do zalogowania się.

Informacja
Użytkownicy z rangą Gość nie mogą dodawać komentarzy.