Menu

Download

Polub nas!
Online
W ostatnich 24 godzinach odwiedziło nas 28033 użytkowników w tym 3563 zalogowanych oraz 24470 gości. Obecnie serwis przegląda 1325 użytkowników, w tym 218 zalogowanych.
32133, 3tek, 6tas6ior6, adas236, agafia89, aischa, alchemica1971, alvvarez, amonre, and102, Andrzej.kl, arci1959, argeleb, arrado232, artfrst, artpos987, artyleria, Asus1978marek, aszk, bachor48, Balrog306, bambek, Banshe_21, berwel, biba, Blondasekone, BMG03, Bodzioa, Bonczysta, bzykac, certina, Cetus, chemikk, christina2013, cienkibolek, Cirrus, copycat, cr68, cypis, czesiorad, czytelnik1973, Dadelog, dagobar, damianek190, Daniel1410, darekgl1968, darocz, DeejayMalec, drapichrust321, dzobi, edi-00, edi22222, EFBOT, ejjay, El Rey, em2be, entity, esiek77, ewemar, fantasta, farsoes,  filip74.74, franczis1, frezik, gabiatko, Gangut, garrick, geniu7, golden6809, goralzak, gregoriusz, grendel8014, gtur1, GunHead, guziu,  Infiniti, iwimix, Jack(o), jancio21, janprotasinski, jasiuomega, jawy1962, jeno10, jmaciej, Joanna67, julo55, justinette, karpenter, kasia1982, kaszaneczka, kazik3333, kenio23, kkazik, klod, kocurek325, kostekdef, kraspinek, KRINSON, kriz, krystian1988s, krzych64, Lain25, leoo, lesmal, leszek324, leszekkrak, likherty, maglebo, maja99, maluszekkk7, mampytanie, mamtowdupie, Manipulatio, mar33335, marada13, marcok272, MarcoPolo, Marek.b58, Mariusz Ch, Mark1955, MasterPRo, matiut, MDPL, mic666, michal0701, miszczświata, modek, mody80, mord4, msas, Nemeni1, nikka, Obcy120, Ominek, optivik, paradise19, pawell, Pawelo_33, pawelszo, pawlik6, pawpol007, pcmarek, pentium2, phenix71, picia1964, pikowy, Pimek, pios, piotur, pitereku, pitipavel, PLA, POrlik, profoto007, Proton_1x, przemas2401, pspgame, pulsar13, pychu007, pyzdra525, qwasek, R3ICH, ra88, radas98, Rafaello, ragna84, Rasalom, rdebiec, rdsxfi, redoker77, roro2, ruddie, rudi69, Sanchez, satib, scivaldi, seagate, Sebo213, sensei_pl, silwana, skipler, slaws32, snayper9, soko33, splittt, stapbert, stardust2017, Svilesis, swis1, szpotawa, thalotor, tomcio69, tomiczek3, trebla, urszula64, V8torrent, velrybsonov, viva, walduhiro, Watelord, wd17, wdl22, wezyr512, wiesiekza, wind34, Winterlady, witt2100, wlodek_r_1959, xbast21x, xmenx, xrays, zaba2383, zasraniec, zelek03, Zeusik1, zibiguzik, zxc74, zylasty
Najgoretsze wstawki


Autor: marszalek1
Data: 2 Sierpień 2010
Kategoria: FILMY » Napisy
0


The Joneses (2009) 720p BRRip Napisy PL

The Joneses (2009) 720p BRRip Napisy PL

PRODUKCJA : USA
GATUNEK : Dramat
CZAS TRWANIA : 96 minut
DATA PREMIERY : 13.09.2009 - Świat


OPIS: Idealna para Steve i Kate Jones oraz ich wspaniałe nastoletnie dzieci: Jenn i Mick są przedmiotem zazdrości klasy wyższych sfer, drobnomieszczańskiego sąsiedztwa, w tym rodziny McMansions. Kate jest dyktatorem mody - piękna, seksowna, i ubrana z góry do dołu w markowe ciuchy. Steve jest podziwianym biznesmenem, który posiada dosłownie wszystko...



The Joneses (2009) 720p BRRip Napisy PL

The Joneses 2009 PL SUBBED 720p BRRip XviD AC3-LEGi0N

Video
Format: MPEG-4 Visual
Format profile: Streaming [email protected]
Format settings, BVOP: Yes
Format settings, QPel: No
Format settings, GMC: No warppoints
Format settings, Matrix: Default (H.263)
Muxing mode: Packed bitstream
Codec ID: XVID
Bit rate: 3 078 Kbps
Width: 1 280 pixels
Height: 544 pixels
Display aspect ratio: 2.35
Frame rate: 23.976 fps
Resolution: 24 bits
Colorimetry: 4:2:0
Scan type: Progressive
Bits/(Pixel*Frame): 0.184
Stream size: 2.06 GiB (87%)

Audio
Format: AC-3
Bit rate mode: Constant
Bit rate: 448 Kbps
Channel(s): 6 channels
Sampling rate: 48.0 KHz
Stream size: 307 MiB (13%)



.:: DOWNLOAD ::.

# W JEDNYM PLIKU #
Aby zobaczyć ukryty tekst musisz być zalogowany, jeżeli nie masz konta zarejestruj się!


No pass



Podziel się !

Delicious'da Share  Share on Facebook  Friendfeed Share  Google Shared  StubmleUpon'da Share  Digg'de Share  Netvibes'de Share  Reddit'de Share RSS Feeds Subscribe!

Powrót
Przeglądasz witrynę jako gość.
Dlatego zachęcamy do rejestracji lub do zalogowania się.

Informacja
Użytkownicy z rangą Gość nie mogą dodawać komentarzy.