Menu

Download

Polub nas!
Online
W ostatnich 24 godzinach odwiedziło nas 9811 użytkowników w tym 3578 zalogowanych oraz 6233 gości. Obecnie serwis przegląda 269 użytkowników, w tym 151 zalogowanych.
3_kawki, agrest004, alanfu, albercik82, alina_89, Alworthy, amba, andreas1166, ANDY338, Angiemangie, arektyc, arrtem, artz33, awart404, baku12, bee, behataneath, bober79, bobik7777, bogdan85, bububu07bu, bulgoc, CezaryW, colossus1, conbass1, cr68, czarny7929, cze, darekpot, darthv90, delta37, djlemur, domdel2, dominous, dreju, dsefd, dziube16, EFBOT, em2be, erik12, eskey, ganton, geniusloci, genowefa, gildor, gluska, gonzo18nyc, gt350, H1sLTN, hans26, hermar7, iceman7777, imnowak, insignia, interek, isegoria, IyreenDavos, jakubjasz, jareksu, jaros7, jaxa007, jerzec, JKielonek, jply, Jucia83, kasnem, kaspu, kempy2, kevin2006, Khadif, Kiciur, kkrammer, klaps11, kololuk, krzoku76, kylo73, Lecter123, lordgbyron, macaga, majki_23, MalyMisio, maniek75, Manipulatio, marbo11, marcin-kajak, marcin.strzesniewski, marcin790, mariano7777, Martinez, marzena123, mercurium, mg9, MieciaC, mirasek86, mistrzjarek, mocap, MONel, mpkes, niunio3, nkristoff, ossy, pawbojar, pawel0027, pawiu81, pit76er, pj_79, Potter, Premium_Kosa, przemo10121989, psychobart, PYRUS, pyzdra525, qspy, ra88, rafacus, Rafaelloo1985, rdsxfi, rej212, richmond, robertcacek, Robertnss, robo1967, roksa, romuskat, rrman69, rufin1978, salivan1, sebastianpieta, skima112, slat, sliwa262, Ssteffann, studiokroton, Svilesis, szaryanonim, szpotawa, termoso2013, tomcio69, trabson, trebugas, trutututu, uped, Valgard, whisky65, Winterlady, witol, wkaczka1963, wx2op2, zbychu11985, zbyszek1408, Zelwik
Najgoretsze wstawki


Autor: Demonxx
Data: 26 Lipiec 2010
Kategoria: FILMY » Napisy
0


Vaada Raha I Promise(2009) Hindi-XviD-={DaBaS} NAPISY PL

Vaada Raha I Promise(2009) Hindi-XviD-={DaBaS} NAPISY PL



General
=======
Format : AVI
Format/Info : Audio Video Interleave
File size : 698 MiB
Duration : 1h 45mn
Overall bit rate : 921 Kbps
Imdb Link : http://www.imdb.com/title/tt1512321/
Dramat , Romans

Video

=====
Format : MPEG-4 Visual
Format profile : Streaming [email protected]
Format settings, BVOP : Yes
Format settings, QPel : No
Format settings, GMC : No warppoints
Format settings, Matrix : Default
Muxing mode : Packed bitstream
Codec ID : XVID
Codec ID/Hint : XviD
Duration : 1h 45mn
Bit rate : 464 Kbps
Width : 720 pixels
Height : 320 pixels
Display aspect ratio : 2.25
Frame rate : 23.976 fps
Resolution : 24 bits
Colorimetry : 4:2:0
Scan type : Progressive
Bits/(Pixel*Frame) : 0.084
Stream size : 351 MiB (50%)
Writing library : XviD 50

Audio
=====
Format : AC-3
Format/Info : Audio Coding 3
Codec ID : 2000
Duration : 1h 45mn
Bit rate mode : Constant
Bit rate : 448 Kbps
Channel(s) : 2 channels
Channel positions : L R
Sampling rate : 48.0 KHz
Stream size : 339 MiB (49%)
Alignment : Split accross interleaves
Interleave, duration : 42 ms (1.00 video frame)
Interleave, preload duration : 500 ms
Language : Hindi


Duke Chawla (Bobby Deol) prowadzi szczęśliwe życie. Jest uznanym lekarzem prowadzącym badania na temat zwalczania raka. Jest kochany przez swoich pacjentów. Ma narzeczoną Pooję (Kangana Renaut), z którą wkrótce ma się ożenić.
Jedna deszczowa noc zmienia wszystko. Duke ma wypadek, który kończy się dla niego paraliżem od szyi w dół. Zostaje przykuty do łóżka. Pooja opuszcza go, a on pragnie jedynie umrzeć.
Pewnego dnia w jego świat wkracza mały chłopak Roshan (Dwij Yadav). Dzięki niemu Duke zaczyna mieć nadzieję i życie nabiera dla niego sensu.

Vaada Raha I Promise(2009) Hindi-XviD-={DaBaS} NAPISY PL
Vaada Raha I Promise(2009) Hindi-XviD-={DaBaS} NAPISY PL


http://turbobit.net/3e16n78k12iv.html






Podziel się !

Delicious'da Share  Share on Facebook  Friendfeed Share  Google Shared  StubmleUpon'da Share  Digg'de Share  Netvibes'de Share  Reddit'de Share RSS Feeds Subscribe!

Przeglądasz witrynę jako gość.
Dlatego zachęcamy do rejestracji lub do zalogowania się.

Informacja
Użytkownicy z rangą Gość nie mogą dodawać komentarzy.