Menu

Download

Dziś nas odwiedzili:
Archiwum:
Maj 2017 (5)
Kwiecień 2017 (4292)
Marzec 2017 (3505)
Luty 2017 (3329)
Styczeń 2017 (3217)
Grudzień 2016 (2840)


Pokaż wszystkie tagi:
Wejścia na Vorek.pl z:
{referer}



NABÓR NA STANOWISKO


MODERATOR        UPLOADER

Autor: Demonxx
Data: 26 Lipiec 2010
Kategoria: FILMY » Napisy
0


Vaada Raha I Promise(2009) Hindi-XviD-={DaBaS} NAPISY PL

Vaada Raha I Promise(2009) Hindi-XviD-={DaBaS} NAPISY PL



General
=======
Format : AVI
Format/Info : Audio Video Interleave
File size : 698 MiB
Duration : 1h 45mn
Overall bit rate : 921 Kbps
Imdb Link : http://www.imdb.com/title/tt1512321/
Dramat , Romans

Video

=====
Format : MPEG-4 Visual
Format profile : Streaming [email protected]
Format settings, BVOP : Yes
Format settings, QPel : No
Format settings, GMC : No warppoints
Format settings, Matrix : Default
Muxing mode : Packed bitstream
Codec ID : XVID
Codec ID/Hint : XviD
Duration : 1h 45mn
Bit rate : 464 Kbps
Width : 720 pixels
Height : 320 pixels
Display aspect ratio : 2.25
Frame rate : 23.976 fps
Resolution : 24 bits
Colorimetry : 4:2:0
Scan type : Progressive
Bits/(Pixel*Frame) : 0.084
Stream size : 351 MiB (50%)
Writing library : XviD 50

Audio
=====
Format : AC-3
Format/Info : Audio Coding 3
Codec ID : 2000
Duration : 1h 45mn
Bit rate mode : Constant
Bit rate : 448 Kbps
Channel(s) : 2 channels
Channel positions : L R
Sampling rate : 48.0 KHz
Stream size : 339 MiB (49%)
Alignment : Split accross interleaves
Interleave, duration : 42 ms (1.00 video frame)
Interleave, preload duration : 500 ms
Language : Hindi


Duke Chawla (Bobby Deol) prowadzi szczęśliwe życie. Jest uznanym lekarzem prowadzącym badania na temat zwalczania raka. Jest kochany przez swoich pacjentów. Ma narzeczoną Pooję (Kangana Renaut), z którą wkrótce ma się ożenić.
Jedna deszczowa noc zmienia wszystko. Duke ma wypadek, który kończy się dla niego paraliżem od szyi w dół. Zostaje przykuty do łóżka. Pooja opuszcza go, a on pragnie jedynie umrzeć.
Pewnego dnia w jego świat wkracza mały chłopak Roshan (Dwij Yadav). Dzięki niemu Duke zaczyna mieć nadzieję i życie nabiera dla niego sensu.

Vaada Raha I Promise(2009) Hindi-XviD-={DaBaS} NAPISY PL
Vaada Raha I Promise(2009) Hindi-XviD-={DaBaS} NAPISY PL


http://turbobit.net/3e16n78k12iv.html






Podziel się !

Delicious'da Share  Share on Facebook  Friendfeed Share  Google Shared  StubmleUpon'da Share  Digg'de Share  Netvibes'de Share  Reddit'de Share RSS Feeds Subscribe!

Powrót
  • Wyświetleń: 185
Przeglądasz witrynę jako gość.
Dlatego zachęcamy do rejestracji lub do zalogowania się.