Menu

Download

Dziś nas odwiedzili:
biggreg, -julius-, mogo76, bogdanbig, endriu07, Jerry-Kot, kongro, MARTEX01, karat, kolektyw8, damian797, danix20, dario66, BoloLVII, wytaczarz44, Trytonik, lukaszek17, PAKO1970, pychu007, splittt, krynio1508, Stan14, madzik7470, przemo_geremi, adamo, GunHead, orlandoblum, Uszka2001, grzesiek___16, Daniel 82, voytex2, ryba2010, lauratcv, kojot, posejdon, aalkoholic, xcess, Hanys57, krzysztofko, zorki3333, tomaszo1948, perez_2, secundus, mysliwyk, jarecki500, rafgraf, elwro, jupkeennss, janek1888, sypki7, margaretka62, Vanisz, paweł1992, dulo123, pentor, wlodek79, nowako22, Painkiller212, glut1510, Lorenz, chudy93, pancerniak, raabartek, wow69, usnik, Benton, wojtasg, geniusloci, akak1, maciej1900, mariog1909, Tumek73, matey777, spoli, ellah, bagum, ramzes542, parowens, andrzej2211, GREGORHIT, vorek6108, pitereku, harcmistrz, wasyl75, kudek01, weglownia, Fedor11, mondia, cukierek-85, jusuw, pietiak77, jano666, werwe, P9N7, DANIEL_WOROSZKO, mlody2205, patrykowo1001, waclaw, vonanna, jeak, ptaszek1, pionek21, gizdus, grzesiekswdn86, ralf1976, serrafus, lukasz10051, mariant, drls1989, jacolcom, filesdark, oartu, Patrico24, scorpions793, Beno182210, papay100, rumak83, bardi86, bokser123, MIREK11111, aspekt2004, adam1neo, ARTUROSE, piwosz_m, krepel, tadeuszo7, kamyk70, Grad13, porwichp, zet25, mach12, wawa998, bartecki7, adikos34, Cirrus, Rododendron123, Savicz, kleopatra777, joop47, wotar, grzesiek53, apochec, bazyk, majordom777, arkadiusz271, jaco013, andy08, Irek783, mariuszfor73, ASTERGO, duch48, czasnasen1, Finder, tat4, Manias01, misiu1185, robaczio9, Gabu, zawer01, pupilek, foch5r, jace11, LeoMarkus, amfetaminka, mrozek8, jano28, 1bolo1, robertini1, marecki2017, ijorgu, Zelwik, mundi718, renka, edetka, bart85, slay25, robin163, kamelot2012, basti1960, Romal1, Marek.b58, Lune, krriss, balanga11, zibim, jusia266, willi1953, mr36, pipipiotr, drenn1, Ambasadoor70, RUFO, tomaszek24, tedxvs, weenzer, marecki43, angelo1969, symoni2008, SARCIA, pawlorka, elasuc, ryszardos69, jedrek00711, baraxx, Bartekn90, xard2906, pepik11, cmychor, andjey, dariusz1972, spot2302, Pafelek1, EdiMar, kasi, alex, wojtaszek13, przemograf, jszlom, topikos, wiesio598, ziuta, brovarek123, jpwko, rob1234599, mariusz242, mardra1, 123nowy, buku54, cam_23, iwonaro, pendent, mks, dorkasevi, wiesiek77, and20, mirus12, ralf100, Kamirllo105, bodo67, aj 1971, fox57, Ashigari, wisior72, DeejayMalec, mp3de, rdsxfi, 77vito77, virginiaa, EFBOT, Koper_ti, jarek861029, gargamel_50, puedros57, gbur17, gresiek1, Fryta128, anetpio, Creative, momo1410, narkusdwa, Svilesis, adox80, biznesmen66, pbpbpbpbpb, tobi180

Archiwum:
Luty 2017 (3288)
Styczeń 2017 (3218)
Grudzień 2016 (2844)
Listopad 2016 (2427)
Październik 2016 (1960)
Wrzesień 2016 (1857)


Pokaż wszystkie tagi:
Wejścia na Vorek.pl z:
{referer}



NABÓR NA STANOWISKO


MODERATOR        UPLOADER

Autor: Demonxx
Data: 26 Lipiec 2010
Kategoria: FILMY » Napisy
0


Vaada Raha I Promise(2009) Hindi-XviD-={DaBaS} NAPISY PL

Vaada Raha I Promise(2009) Hindi-XviD-={DaBaS} NAPISY PL



General
=======
Format : AVI
Format/Info : Audio Video Interleave
File size : 698 MiB
Duration : 1h 45mn
Overall bit rate : 921 Kbps
Imdb Link : http://www.imdb.com/title/tt1512321/
Dramat , Romans

Video

=====
Format : MPEG-4 Visual
Format profile : Streaming [email protected]
Format settings, BVOP : Yes
Format settings, QPel : No
Format settings, GMC : No warppoints
Format settings, Matrix : Default
Muxing mode : Packed bitstream
Codec ID : XVID
Codec ID/Hint : XviD
Duration : 1h 45mn
Bit rate : 464 Kbps
Width : 720 pixels
Height : 320 pixels
Display aspect ratio : 2.25
Frame rate : 23.976 fps
Resolution : 24 bits
Colorimetry : 4:2:0
Scan type : Progressive
Bits/(Pixel*Frame) : 0.084
Stream size : 351 MiB (50%)
Writing library : XviD 50

Audio
=====
Format : AC-3
Format/Info : Audio Coding 3
Codec ID : 2000
Duration : 1h 45mn
Bit rate mode : Constant
Bit rate : 448 Kbps
Channel(s) : 2 channels
Channel positions : L R
Sampling rate : 48.0 KHz
Stream size : 339 MiB (49%)
Alignment : Split accross interleaves
Interleave, duration : 42 ms (1.00 video frame)
Interleave, preload duration : 500 ms
Language : Hindi


Duke Chawla (Bobby Deol) prowadzi szczęśliwe życie. Jest uznanym lekarzem prowadzącym badania na temat zwalczania raka. Jest kochany przez swoich pacjentów. Ma narzeczoną Pooję (Kangana Renaut), z którą wkrótce ma się ożenić.
Jedna deszczowa noc zmienia wszystko. Duke ma wypadek, który kończy się dla niego paraliżem od szyi w dół. Zostaje przykuty do łóżka. Pooja opuszcza go, a on pragnie jedynie umrzeć.
Pewnego dnia w jego świat wkracza mały chłopak Roshan (Dwij Yadav). Dzięki niemu Duke zaczyna mieć nadzieję i życie nabiera dla niego sensu.

Vaada Raha I Promise(2009) Hindi-XviD-={DaBaS} NAPISY PL
Vaada Raha I Promise(2009) Hindi-XviD-={DaBaS} NAPISY PL


http://turbobit.net/3e16n78k12iv.html






Podziel się !

Delicious'da Share  Share on Facebook  Friendfeed Share  Google Shared  StubmleUpon'da Share  Digg'de Share  Netvibes'de Share  Reddit'de Share RSS Feeds Subscribe!

Powrót
  • Wyświetleń: 183
Przeglądasz witrynę jako gość.
Dlatego zachęcamy do rejestracji lub do zalogowania się.