Menu

Download

Dziś nas odwiedzili:
womi10, bodekk2, nowmarek, kubakami, enigma1952, janek12, rodzynek1983, yasiorek, margaretka62, zbeer, wlodek79, rudagemba, trez, Roberto77, Krakus51, biznesmen66, Mlody12478, Majki, pit.7777, dajnis11, songoten2, MISIU11, przemograf, keczo, ahagner, rysiek975, kasiaj4, marecki28, Max Killer, dumdum23, 4lolek4, Grzegorz72, pupil666, Ireland29, nonez, Marek.b58, martin7011, jeak, crashed323, symoni2008, piotrus190211, riko121, lukaszek17, zbyszekr, swen7, Fajur, gumis22, Tizian, tlisiak80, agary35, EdiMar, lukasz10051, ROBERT POZNAŃ, ritmo60cl, bansior01, amfa07, karol2005, santa3, luizatomek, Kozlowska, barteklublin111, masterp, maadziiaa30, tomczyk3, alsmir, dungs, eneasz, fox57, klymvm, schabu72, Grav1ty, tadeuszo7, Prospector00, ralf1976, Proton_1x, Vanisz, cycek77, konradko77, Fedor11, gress19, pychu007, wlodek66, rymos, gawron.1983, OWC1, momo1410, antczaki, xmiro, priv, Ambasadoor70, pawela, zpcytadela, drls1989, marcindziki1, kudek01, brovarek123, waawr, circus, ramzes542, bollos, victory04, djlemur, mariant, Thalia1, anita13, twingo25, slawo79, lucky170, raabartek, geniu7, Siegfried, johnyb70, yaro97, Karlos2150, pitereku, Manias01, krepel, MIREK11111, adamusasior122, DeejayMalec, topolski, kwasek, areczek971, solgerx, pentor, gento, dtox1, tomaszo1948, Feniks101, andrzejpfx, crownart, jacenty179, robek4, lonej1, 75tofik, rafgraf, tobi180, sinus421, tomek i ania, skima112, zakopne, snayper, gruby1001, ulaghost, pika01, Estek1, Bogkowa, aszk, amilo, przemko1022, JoXs, skajla, topikos, gregorcio, 1marek1, 1boniek1, kamyk70, qwerty1945, kriss86pl, matey777, pionek21, seba512, prularis, szukisek, Tomciu78, marekdudi, pirek, Grad13, pinoter58, rufinone, monsun65, pepik11, akak1, rutkowski20, FALKON69, ARTUROSE, jedrek00711, Dawid88Diablo, mirunia22, cze, malczyce, silviulian, kris2008, lepper, Sarima, mondia, esy, skyluk, rumak83, jano666, eree, mach12, sproket1, picer123, dejw, micpie8, Trytonik, misiu1185, baraxx, narkusdwa, Lukas8, bronek65, lordsiur, buruburu, vermigor, robaczio9, bulkotnik, biggreg, piterd14, Zelwik, yonk, ewa1971, arrtturro76, Liar, lauratcv, Sypi, MarczelM, sir daro 24, Sdrov, P.P.P., waclaw, ziuta, piurored123, spoli, miro, kasi, arkadiusz271, mp3de, GunHead, 17051970, machoney1920, sharp_99, dorkasevi, cxy35, celin, bylik71, wotar, jupkeennss, bil, syaro, pipipiotr, tedxvs, wytaczarz44, bydgoszcz22, darekbus, igi2, jarro40, mart1nof, tom7517, joanna72, angelo1969, RysioJanusz, Lorenz, kajtek42, Erik, kat666, aj 1971, jinks13, mart73, lauenburg, Cirrus, serrafus, krzycho1985, splittt, jpwko, mogo76, EFBOT, whisky65, artekplay, weglownia, jusia266, andjey, Bartekn90, xard2906, jurczyna, Auto-Lux, buku54, jarecki500, mariusz242, slawol666, Adi73, iwonaro, Kamirllo105, fmondeo, maruda3773, ahmedibnfahlan, Svilesis, Zakapior77, virginiaa, gbur17, cwiras22, aspekt2004, Seba1984r, karol80, Estebes777, szturmen, Johanson325, adox80, aga2.05, puedros57, adikos34, miodowe

Archiwum:
Grudzień 2016 (206)
Listopad 2016 (2438)
Październik 2016 (1967)
Wrzesień 2016 (1859)
Sierpień 2016 (2523)
Lipiec 2016 (2609)


Pokaż wszystkie tagi:
Wejścia na Vorek.pl z:
{referer}



NABÓR NA STANOWISKO


MODERATOR        UPLOADER



Predators (2010) TS - Napisy PL

Predators (2010) TS - Napisy PL

produkcja: USA
gatunek: Akcja, Sci-Fi
premiera: 16 lipca 2010 (Polska) 8 lipca 2010 (Świat)
reżyseria: Nimród Antal
scenariusz: Alex Litvak, Robert Rodriguez
muzyka: John Debney
zdjęcia: Gyula Pados


OPIS: Predatorzy po raz kolejny przybywają na Ziemię. Tym razem, nie w celu polowania. Porywają jednych z lepiej prezentujących się ludzi na swoją planetę, by na nich mogli polować młodzi Predatorzy. Sprawa jednak wymyka się spod kontroli. Royce (Adrien Brody) mobilizuje Ziemian, którzy nie dają za wygraną. Zwierzyny uciekają, robiąc wokół dużego zamieszania. Sprawy w swoje ręce biorą inni Predatorzy, zaś ludzie starają się ocalić skórę i w najlepszym wypadku, wrócić na swoją rodzinną planetę.


Predators (2010) TS - Napisy PL

Predators (2010) TS - Napisy PL




Predators (2010) TS - Napisy PL

Predators 2010 TS READNFO XViD - IMAGiNE

DANE:
Video
Format : MPEG-4 Visual
Format profile : Streaming [email protected]
Format settings, BVOP : Yes
Format settings, QPel : No
Format settings, GMC : No warppoints
Format settings, Matrix : Default
Muxing mode : Packed bitstream
Codec ID : XVID
Codec ID/Hint : XviD
Duration : 1h 41mn
Bit rate : 1 797 Kbps
Width : 720 pixels
Height : 304 pixels
Display aspect ratio : 2.35
Frame rate : 25.000 fps
Resolution : 24 bits
Colorimetry : 4:2:0
Scan type : Progressive
Bits/(Pixel*Frame) : 0.328
Stream size : 1.27 GiB (93%)
Writing library : XviD 50

Audio
Format : MPEG Audio
Format version : Version 1
Format profile : Layer 3
Codec ID : 55
Codec ID/Hint : MP3
Duration : 1h 41mn
Bit rate mode : Constant
Bit rate : 128 Kbps
Channel(s) : 2 channels
Sampling rate : 44.1 KHz
Resolution : 16 bits
Stream size : 92.6 MiB (7%)
Alignment : Split accross interleaves
Interleave, duration : 40 ms (1.00 video frame)
Interleave, preload duration : 500 ms



.:: DOWNLOAD ::.

# W JEDNYM PLIKU #
Aby zobaczyć ukryty tekst musisz być zalogowany, jeżeli nie masz konta zarejestruj się!


No pass



Podziel się !

Delicious'da Share  Share on Facebook  Friendfeed Share  Google Shared  StubmleUpon'da Share  Digg'de Share  Netvibes'de Share  Reddit'de Share RSS Feeds Subscribe!

Powrót
Przeglądasz witrynę jako gość.
Dlatego zachęcamy do rejestracji lub do zalogowania się.

Informacja
Użytkownicy z rangą Gość nie mogą dodawać komentarzy.