Menu

Download

Dziś nas odwiedzili:
Archiwum:
Grudzień 2016 (848)
Listopad 2016 (2433)
Październik 2016 (1961)
Wrzesień 2016 (1857)
Sierpień 2016 (2521)
Lipiec 2016 (2605)


Pokaż wszystkie tagi:
Wejścia na Vorek.pl z:
{referer}



NABÓR NA STANOWISKO


MODERATOR        UPLOADER



Drużyna A / The A-Team (2010) 720p BDRip - TG

Drużyna A / The A-Team (2010) 720p BDRip - TG

reżyseria: Joe Carnahan
scenariusz: Michael Brandt, Derek Haas
premiera: 11 czerwca 2010 (Polska) 9 czerwca 2010 (Świat)
produkcja: USA
gatunek: Komedia, Akcja
czas trwania: 120 min


OPIS: Grupa weteranów wojny w Iraku zostaje wrobiona w zabójstwo i postanawia za wszelka cenę odzyskać dobre imię. Kinowa wersja bijącego rekordy popularności komediowego serialu TV, wyreżyserowana przez Joe Carnahana (autora "Asa w rękawie" oraz "W cieniu chwały").


Drużyna A / The A-Team (2010) 720p BDRip - TG

Drużyna A / The A-Team (2010) 720p BDRip - TG



Drużyna A / The A-Team (2010) 720p BDRip - TG

Complete name : The. A-Team.2010.AC3.BDRip.720p.mkv - TG
Format : Matroska
File size : 4.38 GiB
Duration : 1h 53mn
Overall bit rate : 5 504 Kbps
Encoded date : UTC 2010-07-10 01:57:21
Writing application : mkvmerge v2.4.1 ('Use Me') built on Dec 5 2008 18:30:05
Writing library : libebml v0.7.7 + libmatroska v0.8.1
Video #1
ID : 1
Format : MPEG-4 Visual
Format profile : [email protected]
Format settings, BVOP : No
Format settings, QPel : No
Format settings, GMC : No warppoints
Format settings, Matrix : Default (H.263)
Codec ID : V_MPEG4/ISO/ASP
Codec ID/Info : Advanced Simple Profile
Duration : 1h 53mn
Bit rate : 5 011 Kbps
Width : 1 280 pixels
Height : 544 pixels
Display aspect ratio : 2.35:1
Frame rate : 25.000 fps
Resolution : 24 bits
Colorimetry : 4:2:0
Scan type : Progressive
Bits/(Pixel*Frame) : 0.288
Stream size : 3.98 GiB (91%)
Writing library : Lavc52.30.1
Language : English
Audio #2
ID : 2
Format : AC-3
Format/Info : Audio Coding 3
Codec ID : A_AC3
Duration : 1h 53mn
Bit rate mode : Constant
Bit rate : 384 Kbps
Channel(s) : 2 channels
Channel positions : L R
Sampling rate : 48.0 KHz
Stream size : 313 MiB (7%)


obraz z ruskiego BR a dzwiek angielski z kinowki



.:: DOWNLOAD ::.

# W JEDNYM PLIKU #
Aby zobaczyć ukryty tekst musisz być zalogowany, jeżeli nie masz konta zarejestruj się!


No pass



Podziel się !

Delicious'da Share  Share on Facebook  Friendfeed Share  Google Shared  StubmleUpon'da Share  Digg'de Share  Netvibes'de Share  Reddit'de Share RSS Feeds Subscribe!

Powrót
Przeglądasz witrynę jako gość.
Dlatego zachęcamy do rejestracji lub do zalogowania się.

Informacja
Użytkownicy z rangą Gość nie mogą dodawać komentarzy.