Menu

Download

Dziś nas odwiedzili:
Archiwum:
Grudzień 2016 (673)
Listopad 2016 (2434)
Październik 2016 (1961)
Wrzesień 2016 (1857)
Sierpień 2016 (2521)
Lipiec 2016 (2605)


Pokaż wszystkie tagi:
Wejścia na Vorek.pl z:
{referer}



NABÓR NA STANOWISKO


MODERATOR        UPLOADER

Autor: Smeak
Data: 18 Maj 2010
Kategoria: FILMY » Napisy
0


RobinHood (2010) CammRip - CreaTive-Team - angielskie audio!

Robin Hood (2010) Cam-CreativeTeam-ENG



###Info###

General
Complete name : Robin.Hood.Cam.2010.LU.avi
Format : AVI
Format/Info : Audio Video Interleave
File size : 796 MiB
Duration : 2h 11mn
Overall bit rate : 847 Kbps

Video
ID : 0
Format : MPEG-4 Visual
Format settings, BVOP : Yes
Format settings, QPel : No
Format settings, GMC : No warppoints
Format settings, Matrix : Default (H.263)
Muxing mode : Packed bitstream
Codec ID : DX50
Codec ID/Hint : DivX 5
Duration : 2h 11mn
Bit rate : 709 Kbps
Width : 640 pixels
Height : 288 pixels
Display aspect ratio : 2.222
Frame rate : 25.000 fps
Resolution : 8 bits
Colorimetry : 4:2:0
Scan type : Progressive
Bits/(Pixel*Frame) : 0.154
Stream size : 667 MiB (84%)
Title : Video
Writing library : DivX 6.8.5 (UTC 2009-08-20)

Audio
ID : 1
Format : MPEG Audio
Format version : Version 1
Format profile : Layer 3
Mode : Joint stereo
Format_Settings_ModeExtension : MS Stereo
Codec ID : 55
Codec ID/Hint : MP3
Duration : 2h 11mn
Bit rate mode : Constant
Bit rate : 128 Kbps
Channel(s) : 2 channels
Sampling rate : 48.0 KHz
Stream size : 120 MiB (15%)
Alignment : Split accross interleaves
Interleave, duration : 40 ms (1.00 video frame)
Interleave, preload duration : 500 ms
Title : Audio  




###Screen###

Robin Hood (2010) Cam-CreativeTeam-ENG




| NAJLEPSZA JAKOŚĆ W SIECI! |
| Sprawdzony upload |
| Szybki serwer |



Robin Hood (2010) Cam-CreativeTeam-ENG
http://www.sharingmatrix.com/file/5306773/RobinHood._2010_.CamRip.CreaTive-Team.ENG.avi.part1.rar
http://www.sharingmatrix.com/file/5306793/RobinHood._2010_.CamRip.CreaTive-Team.ENG.avi.part2.rar



Podziel się !

Delicious'da Share  Share on Facebook  Friendfeed Share  Google Shared  StubmleUpon'da Share  Digg'de Share  Netvibes'de Share  Reddit'de Share RSS Feeds Subscribe!

Powrót
Przeglądasz witrynę jako gość.
Dlatego zachęcamy do rejestracji lub do zalogowania się.

Informacja
Użytkownicy z rangą Gość nie mogą dodawać komentarzy.