Menu

Download

Dziś nas odwiedzili:
Archiwum:
Grudzień 2016 (345)
Listopad 2016 (2437)
Październik 2016 (1966)
Wrzesień 2016 (1859)
Sierpień 2016 (2523)
Lipiec 2016 (2609)


Pokaż wszystkie tagi:
Wejścia na Vorek.pl z:
{referer}



NABÓR NA STANOWISKO


MODERATOR        UPLOADER

Autor: neo25
Data: 18 Listopad 2011
Kategoria: FILMY » Napisy
0


[img]http://filpic.eu/di-RBDF.jpg[/img

[img]http://fotofotki.pl/pliki_img/biozdtc9l1j160pjtgwc.png[/img]

reżyseria: David R. Ellis
scenariusz: Will Hayes, Jesse Studenberg
premiera: 9 września 2011 (Polska) 1 września 2011 (Świat)
produkcja: USA
gatunek: Horror, Thriller

Po 'Piranii 3D* przyszedł czas na spotkanie oko w oko z krwiożerczymi rekinami! Sara Paxton ('Ostatni dom po lewej*) w najnowszym filmie reżysera 'Oszukać przeznaczenie 4*. Grupa siedmiu znajomych wyrusza na weekendową wycieczkę do położonego nad brzegiem zatoki domku letniskowego. Nie zdają sobie jeszcze sprawy, że pod spokojnie wyglądającą powierzchnią wody czają się rekiny. Te morskie drapieżniki nie są jednak jedynym zagrożeniem dla niczego nieświadomej grupki młodych ludzi. By przeżyć będą musieli walczyć na śmierć i życie.

Shark Night / Noc rekinów (2011) PL.SUBBED.DVDRip.R5.XviD.AC3 / Napisy PL
Video
ID : 0
Format : MPEG-4 Visual
Format profile : Advanced [email protected]
Format settings, BVOP : 1
Format settings, QPel : No
Format settings, GMC : No warppoints
Format settings, Matrix : Default (H.263)
Muxing mode : Packed bitstream
Codec ID : XVID
Codec ID/Hint : XviD
Duration : 1h 28mn
Bit rate : 917 Kbps
Width : 640 pixels
Height : 352 pixels
Display aspect ratio : 16:9
Frame rate : 24.000 fps
Color space : YUV
Chroma subsampling : 4:2:0
Bit depth : 8 bits
Scan type : Progressive
Compression mode : Lossy
Bits/(Pixel*Frame) : 0.170
Stream size : 579 MiB (84%)
Writing library : XviD 64

Audio
ID : 1
Format : MPEG Audio
Format version : Version 1
Format profile : Layer 3
Codec ID : 55
Codec ID/Hint : MP3
Duration : 1h 28mn
Bit rate mode : Constant
Bit rate : 128 Kbps
Channel(s) : 2 channels
Sampling rate : 44.1 KHz
Compression mode : Lossy
Stream size : 80.8 MiB (12%)
Alignment : Aligned on interleaves




Download:

FilePost.com

Aby zobaczyć ukryty tekst musisz być zalogowany, jeżeli nie masz konta zarejestruj się!


LUB

FileServe.com

Aby zobaczyć ukryty tekst musisz być zalogowany, jeżeli nie masz konta zarejestruj się!


LUB

FileSonic.com

Aby zobaczyć ukryty tekst musisz być zalogowany, jeżeli nie masz konta zarejestruj się!


###INFO###
Mój upload |*| My Upload
Bez hasła ! ! !|*| No password
Tylko jeden link |*| Only One Link




Podziel się !

Delicious'da Share  Share on Facebook  Friendfeed Share  Google Shared  StubmleUpon'da Share  Digg'de Share  Netvibes'de Share  Reddit'de Share RSS Feeds Subscribe!

Powrót
Przeglądasz witrynę jako gość.
Dlatego zachęcamy do rejestracji lub do zalogowania się.

Informacja
Użytkownicy z rangą Gość nie mogą dodawać komentarzy.