Menu

Download

Dziś nas odwiedzili:
Archiwum:
Grudzień 2016 (673)
Listopad 2016 (2434)
Październik 2016 (1961)
Wrzesień 2016 (1857)
Sierpień 2016 (2521)
Lipiec 2016 (2605)


Pokaż wszystkie tagi:
Wejścia na Vorek.pl z:
{referer}



NABÓR NA STANOWISKO


MODERATOR        UPLOADER



Oszukać Przeznaczenie 5 / Final Destination 5 TS XViD - IMAGiNE *1 Link + Napisy PL*


OPISNieważne dokąd uciekniesz, nieważnie gdzie się schowasz... nie oszukasz śmierci. W Oszukać przeznaczenie 5 Śmierć jest jak zawsze wszechobecna. Jej moce zostają wyzwolone, gdy przeczucie jednego człowieka ratuje grupę robotników od śmierci pod gruzami mostu wiszącego. Przeznaczeniem tych ludzi było nie przetrwać. Teraz w przerażającym wyścigu z czasem, przeklęta grupa gorączkowo próbuje odkryć sposób ucieczki przed złowrogim planem Śmierci.

DETAILS:

Video
ID : 0
Format : MPEG-4 Visual
Format profile : Advanced [email protected]
Format settings, BVOP : 2
Format settings, QPel : No
Format settings, GMC : No warppoints
Format settings, Matrix : Default (MPEG)
Muxing mode : Packed bitstream
Codec ID : XVID
Codec ID/Hint : XviD
Duration : 1h 26mn
Bit rate : 2 125 Kbps
Width : 720 pixels
Height : 256 pixels
Display aspect ratio : 2.813
Frame rate : 29.970 fps
Color space : YUV
Chroma subsampling : 4:2:0
Bit depth : 8 bits
Scan type : Progressive
Compression mode : Lossy
Bits/(Pixel*Frame) : 0.385
Stream size : 1.28 GiB (94%)
Writing library : XviD 64

Audio
ID : 1
Format : MPEG Audio
Format version : Version 1
Format profile : Layer 3
Codec ID : 55
Codec ID/Hint : MP3
Duration : 1h 26mn
Bit rate mode : Constant
Bit rate : 128 Kbps
Channel(s) : 2 channels
Sampling rate : 44.1 KHz
Compression mode : Lossy
Stream size : 79.2 MiB (6%)
Alignment : Split accross interleaves
Interleave, duration : 33 ms (1.00 video frame)
Interleave, preload duration : 500 ms



SCREENY
Oszukać Przeznaczenie 5 / Final Destination 5 TS XViD - IMAGiNE *1 Link + Napisy PL*



DOWNLOAD
Aby zobaczyć ukryty tekst musisz być zalogowany, jeżeli nie masz konta zarejestruj się!



Podziel się !

Delicious'da Share  Share on Facebook  Friendfeed Share  Google Shared  StubmleUpon'da Share  Digg'de Share  Netvibes'de Share  Reddit'de Share RSS Feeds Subscribe!

Powrót
Przeglądasz witrynę jako gość.
Dlatego zachęcamy do rejestracji lub do zalogowania się.

Informacja
Użytkownicy z rangą Gość nie mogą dodawać komentarzy.