Menu

Download

Dziś nas odwiedzili:
Archiwum:
Grudzień 2016 (466)
Listopad 2016 (2437)
Październik 2016 (1965)
Wrzesień 2016 (1859)
Sierpień 2016 (2523)
Lipiec 2016 (2609)


Pokaż wszystkie tagi:
Wejścia na Vorek.pl z:
{referer}



NABÓR NA STANOWISKO


MODERATOR        UPLOADER



The Traveler (2010) PL.SUBBED.BDRip.XviD-nmbr

*WTOPiONE NAPiSY PL*


The Traveler (2010) PL.SUBBED.BDRip.XviD-nmbr

###iNFO###

The Traveler (2010) PL.SUBBED.BDRip.XviD-nmbr
Reżyseria: Michael Oblowitz
Scenariusz: Joseph C. Muscat
Premiera: czerwiec 2010 (Świat) 2010-06
Produkcja: Kanada, USA
Gatunek: Horror

Wieczór wigilijny. Policjanci z małego miasteczka pracujący na nocnej zmianie zatrzymują tajemniczego mężczyznę, który przedstawia się im jako Pan Nikt. Okazuje się jednak, że jest on zimnym mordercą, który ma do wykonania pewne zadanie...

###RELEASE .NFO###

Video
ID : 0
Format : MPEG-4 Visual
Codec ID : XVID
Duration : 1h 35mn
Bit rate : 881 Kbps
Width : 640 pixels
Height : 272 pixels
Display aspect ratio : 2.35:1
Frame rate : 25.000 fps
Stream size : 604 MiB (86%)
Writing library : XviD 1.2.1 (UTC 2008-12-04)

Audio
ID : 1
Format : MPEG Audio
Format version : Version 1
Format profile : Layer 3
Mode : Joint stereo
Mode extension : MS Stereo
Codec ID/Hint : MP3
Duration : 1h 35mn
Bit rate mode : Variable
Bit rate : 128 Kbps
Channel(s) : 2 channels
Sampling rate : 48.0 KHz
Stream size : 86.7 MiB (12%)


###SCREEN'S###

The Traveler (2010) PL.SUBBED.BDRip.XviD-nmbr

The Traveler (2010) PL.SUBBED.BDRip.XviD-nmbr

The Traveler (2010) PL.SUBBED.BDRip.XviD-nmbr

###DOWNLOAD###

Aby zobaczyć ukryty tekst musisz być zalogowany, jeżeli nie masz konta zarejestruj się!



###NOTES###

Mój upload || My upload
Bez hasła || No password
5% danych naprawczych || 5% data recovery
Spakowane pojedynczo || Single extraction



Podziel się !

Delicious'da Share  Share on Facebook  Friendfeed Share  Google Shared  StubmleUpon'da Share  Digg'de Share  Netvibes'de Share  Reddit'de Share RSS Feeds Subscribe!

Powrót
Przeglądasz witrynę jako gość.
Dlatego zachęcamy do rejestracji lub do zalogowania się.

Informacja
Użytkownicy z rangą Gość nie mogą dodawać komentarzy.