Menu

Download

Dziś nas odwiedzili:
rodzynek1983, biggreg, ravler89, amfetaminka, ralf1976, narkusdwa, kudek01, dudikn, lepper, michas86, foch5r, przemas2232, Manias01, gerard, Uszka2001, virginiaa, bil, krzysiek850307, abaabaaba, jaco013, Estek1, mondia, geniusloci, krepel, solgerx, kanapkatorpedo, ciołek12, Sdrov, elasuc, picer123, Lukas8, danix20, janek12, ellah, areczek971, womi10, adox80, kacper2008, arkadiusz271, kat666, barteklublin111, demon190219, piotr1666, szybki811, Sarima, GunHead, bialy744q, spot2302, tlisiak80, Finder, mach12, kasi, aro383, Lorenz, MISIU11, riko121, intermilano, vermigor, zibi19979, pitereku, bronek65, pika01, akak1, pirek, wotar, adasek.u, weenzer, pychu007, latos2005, kalafior44, ziuta, eree, jusia266, jano666, kkk244240, ijorgu, 3366, wlodek55, baraxx, Dualhead, marcin_marcin, figo73, gawron.1983, ddrr, miro, robek4, wytaczarz44, dorkasevi, spoli, zajac26, angelo1969, slay25, lordsiur, xard2906, tom7517, fazzy99, eneasz, topolski, jinks13, tedxvs, karat, andrzejpfx, balanga11, mp3de, niguel, krzycho1985, buku54, pipipiotr, marecki43, mogo76, splittt, EdiMar, anetam1, AtlasGTX, pepik11, Bartekn90, alex, mks, lukaszek17, P.P.P., jedrek00711, aj 1971, jpwko, snayper, bylik71, Erik, jarek861029, iwonaro, andjey, xxMarek, mardra1, Ashigari, circus, iruss3, Cirrus, jarecki500, aspekt2004, Kamirllo105, Zelwik, mariusz242, Andi-diesel, Vanisz, brovarek123, jarro40, misiu1185, trivium, Estebes777, emilianox, spam9580, luzik5, skajla, sbb1953, tristan_mk, rutkowski20, EFBOT, Bóli123, Svilesis

Archiwum:
Grudzień 2016 (988)
Listopad 2016 (2431)
Październik 2016 (1961)
Wrzesień 2016 (1857)
Sierpień 2016 (2521)
Lipiec 2016 (2605)


Pokaż wszystkie tagi:
Wejścia na Vorek.pl z:
{referer}



NABÓR NA STANOWISKO


MODERATOR        UPLOADER



And Soon The Darkness (2010) SubbedPL.480p.BRRip.XviD-REHOT

And Soon The Darkness (2010) SubbedPL.480p.BRRip.XviD-REHOT

Dwie amerykańskie dziewczyny jadą na wycieczkę rowerą po odległej części Argentyny.
Jedna z nich znika, druga musi ją odnaleźć zanim zapadnie zmrok.


Cztery serwery do wyboru: Hotfile.com, Fileserve.com, Filesonic.com, Bitshare.com
Party można pobierać na przemian
Zawsze 10%Danych Naprawczych (wykluczone błędy CRC)


iNFO:


reżyseria: Marcos Efron, scenariusz: Jennifer Derwingson, Marcos Efron,
zdjęcia: Gabriel Beristain
szczegóły: horror/thriller, Argentyna, Francja, USA, 2010
premiera, dystrybutor: kino (USA): 2010


OBSADA:


Amber Heard, Odette Yustman, Karl Urban

DANE TECHNiCZNE:


Video
ID : 0
Format : xvid
Codec ID : xvid
Duration : 1h 31mn
Bit rate : 2 408 Kbps
Width : 720 pixels
Height : 480 pixels
Display aspect ratio : 3:2
Frame rate : 25.000 fps
Standard : NTSC
Bits/(Pixel*Frame) : 0.279
Stream size : 1.54 GiB (94%)

Audio
ID : 1
Format : MPEG Audio
Format version : Version 1
Format profile : Layer 3
Mode : Joint stereo
Codec ID : 55
Codec ID/Hint : MP3
Duration : 37mn 1s
Bit rate mode : Constant
Bit rate : 128 Kbps
Channel(s) : 2 channels
Sampling rate : 48.0 KHz
Stream size : 33.9 MiB (2%)
Alignment : Aligned on interleaves
Interleave, duration : 59 ms (1.48 video frame)
Writing library : LAME3.98.2

Download:

Aby zobaczyć ukryty tekst musisz być zalogowany, jeżeli nie masz konta zarejestruj się!



Podziel się !

Delicious'da Share  Share on Facebook  Friendfeed Share  Google Shared  StubmleUpon'da Share  Digg'de Share  Netvibes'de Share  Reddit'de Share RSS Feeds Subscribe!

Powrót
Przeglądasz witrynę jako gość.
Dlatego zachęcamy do rejestracji lub do zalogowania się.

Informacja
Użytkownicy z rangą Gość nie mogą dodawać komentarzy.