Menu

Download

Dziś nas odwiedzili:
Archiwum:
Grudzień 2016 (613)
Listopad 2016 (2434)
Październik 2016 (1961)
Wrzesień 2016 (1857)
Sierpień 2016 (2521)
Lipiec 2016 (2605)


Pokaż wszystkie tagi:
Wejścia na Vorek.pl z:
{referer}



NABÓR NA STANOWISKO


MODERATOR        UPLOADER




Duch Trilogy / Poltergeist I II III [TVRip RMVB LEKTOR PL ]

Duch Trilogy / Poltergeist I II III [TVRip RMVB LEKTOR PL ]

Tytuł: Duch

Jakość:
File size : 319 MiB
Duration : 1h 49mn
Overall bit rate : 400 Kbps

Video
ID : 1
Format : RealVideo 4
Codec ID : RV40
Codec ID/Info : Based on AVC (H.264), Real Player 9
Duration : 1h 49mn
Bit rate : 336 Kbps
Width : 640 pixels
Height : 272 pixels
Display aspect ratio : 2.35:1
Frame rate : 25.000 fps
Bits/(Pixel*Frame) : 0.077
Stream size : 264 MiB (83%)

Audio
ID : 0
Format : Cooker
Codec ID : cook
Codec ID/Info : Based on G.722.1, Real Player 6
Duration : 1h 49mn
Bit rate : 64.1 Kbps
Channel(s) : 2 channels
Sampling rate : 44.1 KHz
Resolution : 16 bits
Stream size : 50.3 MiB (16%)

Reżyseria: Tobe Hooper

Obsada:
Craig T. Nelson Steve Freeling
JoBeth Williams Diane Freeling
Heather O'Rourke Carol Anne Freeling
Beatrice Straight Dr Lesh
Dominique Dunne Dana Freeling
Oliver Robins Robbie Freeling
Michael McManus Ben Tuthill

Opis:
Szczęśliwa rodzina przeprowadza się do wymarzonego domu. Po pewnym czasie zaczynają dziać się niezwykłe rzeczy. Upiorne drzewo stojące za oknem próbuje zjeść chłopca, a mała dziewczynka oglądając telewizję zostaje porwana przez tytułowego ducha. Rodzice dziewczynki postanawiają wezwać na pomoc parapsychologów, którzy odkrywają, że ich dom stoi na starym indiańskim cmentarzu.

Recenzja:
http://www.filmweb.pl/film/Duch-1982-5228

=================================================


Tytuł: Duch II

Jakość:
File size : 252 MiB
Duration : 1h 26mn
Overall bit rate : 400 Kbps

Video
ID : 1
Format : RealVideo 4
Codec ID : RV40
Codec ID/Info : Based on AVC (H.264), Real Player 9
Duration : 1h 26mn
Bit rate : 336 Kbps
Width : 640 pixels
Height : 272 pixels
Display aspect ratio : 2.35:1
Frame rate : 25.000 fps
Bits/(Pixel*Frame) : 0.077
Stream size : 209 MiB (83%)

Audio
ID : 0
Format : Cooker
Codec ID : cook
Codec ID/Info : Based on G.722.1, Real Player 6
Duration : 1h 26mn
Bit rate : 64.1 Kbps
Channel(s) : 2 channels
Sampling rate : 44.1 KHz
Resolution : 16 bits
Stream size : 39.9 MiB (16%)

Reżyseria: Brian Gibson

Obsada:

JoBeth Williams Diane Freeling
Craig T. Nelson Steve Freeling
Heather O'Rourke Carol Anne Freeling
Oliver Robins Robbie Freeling
Zelda Rubinstein Tangina Barrons

Opis:
Po tajemniczej stracie domu rodzinka Freelingów zamieszkuje u matki Diany Jess. Pewnego dnia babcia odkrywa u Carol Anne dziwne zdolności oraz mówi jej, że to już u nich rodzinne. Kilka godzin później umiera. Zaraz po tym zdarzeniu w miejscu ich zamieszkania zaczynają dziać się dziwne rzeczy. Rodzina wie już co się wydarzy. Robią wszystko, aby ponownie nie stracić córki. Moce nadprzyrodzone są jednak silniejsze i nie spoczną póki nie porwą Carol Anne. Jednak do pomocy wkracza Tangina Barrons wraz ze swoim towarzyszem Taylorem. Duchy nie dają za wygraną i robią wszystko, żeby porwać rodzicom ich najmłodszą córkę.

download

Aby zobaczyć ukryty tekst musisz być zalogowany, jeżeli nie masz konta zarejestruj się!




Podziel się !

Delicious'da Share  Share on Facebook  Friendfeed Share  Google Shared  StubmleUpon'da Share  Digg'de Share  Netvibes'de Share  Reddit'de Share RSS Feeds Subscribe!

Powrót
Przeglądasz witrynę jako gość.
Dlatego zachęcamy do rejestracji lub do zalogowania się.

Informacja
Użytkownicy z rangą Gość nie mogą dodawać komentarzy.