Menu

Download

Dziś nas odwiedzili:
Archiwum:
Grudzień 2016 (673)
Listopad 2016 (2434)
Październik 2016 (1961)
Wrzesień 2016 (1857)
Sierpień 2016 (2521)
Lipiec 2016 (2605)


Pokaż wszystkie tagi:
Wejścia na Vorek.pl z:
{referer}



NABÓR NA STANOWISKO


MODERATOR        UPLOADER



Step Up 3D TS XViD



Step Up 3D TS XViD

Info:
Produkcja: USA
Gatunek: Melodramat, Muzyczny
Czas trwania: 98 minut
Premiera: 06.08.2010 - Polska, 28.05.2010 - świat
Reżyseria: Jon Chu
Scenariusz: Amy Andelson, Emily Meyer

Opis:
Taniec zmysłów w trzecim wymiarze! Niezapomniane widowisko dla wszystkich, którzy kochają taniec i muzykę. Luke, uliczny tancerz, mieszka w starym magazynie w Nowym Jorku, gdzie spotykają się ludzie, którzy kochają taniec. Kiedy zbliżają się międzynarodowe mistrzostwa, Luke wyrusza na ulicę, by znaleźć nowe talenty, które wesprą jego grupę. Kiedy chłopak poznaje Natalie nadchodzi czas miłości i... walki

pewny upload 100%work 10% Danych naprawczych :)
party po 400MB
Dwa serwery można ściągać na przemiennie ;)



Dane techniczne:
DETAILS:

Video
Format : MPEG-4 Visual
Format profile : Streaming [email protected]
Format settings, BVOP : Yes
Format settings, QPel : No
Format settings, GMC : No warppoints
Format settings, Matrix : Default
Muxing mode : Packed bitstream
Codec ID : XVID
Codec ID/Hint : XviD
Duration : 1h 38mn
Bit rate : 1 855 Kbps
Width : 656 pixels
Height : 368 pixels
Display aspect ratio : 16/9
Frame rate : 25.000 fps
Resolution : 24 bits
Colorimetry : 4:2:0
Scan type : Progressive
Bits/(Pixel*Frame) : 0.307
Stream size : 1.28 GiB (93%)
Writing library : XviD 50

Audio
Format : MPEG Audio
Format version : Version 1
Format profile : Layer 3
Codec ID : 55
Codec ID/Hint : MP3
Duration : 1h 38mn
Bit rate mode : Constant
Bit rate : 128 Kbps
Channel(s) : 2 channels
Sampling rate : 48.0 KHz
Resolution : 16 bits
Stream size : 90.4 MiB (6%)
Alignment : Split accross interleaves
Interleave, duration : 40 ms (1.00 video frame)
Interleave, preload duration : 500 ms


Hotfile:

Aby zobaczyć ukryty tekst musisz być zalogowany, jeżeli nie masz konta zarejestruj się!


Fileserve
Aby zobaczyć ukryty tekst musisz być zalogowany, jeżeli nie masz konta zarejestruj się!



Podziel się !

Delicious'da Share  Share on Facebook  Friendfeed Share  Google Shared  StubmleUpon'da Share  Digg'de Share  Netvibes'de Share  Reddit'de Share RSS Feeds Subscribe!

Powrót
Przeglądasz witrynę jako gość.
Dlatego zachęcamy do rejestracji lub do zalogowania się.

  • 26 Sierpień 2010 18:46
  • Zarejestrowany: 17.03.2009
  • Artykułów: 0
  • Komentarzy: 10
  • Status:
  • Offline
nagrywane kamerą i angielskojęzyczna wersja

W tytule jest oznaczenie TS co oznacza że to wersja "kamerowa"
Informacja
Użytkownicy z rangą Gość nie mogą dodawać komentarzy.