Menu

Download

Dziś nas odwiedzili:
Ewamey76, Rogall, smina, ravler89, pychu007, marek.k30, yonk, czechosos, hahn, krzycho1985, darett, riko121, wojtas1000, rymos, omega1204, pupil666, gerard, michas86, GunHead, zadlo80, intermilano, hardcore3791, Finder, snayper, kkk244240, adamusasior122, Bogkowa, cze, karol80, draco, tomekbph, Ireland29, dawi202, bardini, wasyl75, bastion4, tozacz1, P.P.P., lukasz666666, bogdanpi, king185, priv, bodek63, topolski, mateusz1989, gasior932, ellah, mogo76, kurosumi, MIREK11111, pawciopokemon, swen7, edmund54, zbok69, raabartek, lonej1, Liar, eree, andrzejpfx, robek4, Estek1, igi2, johnyb70, victory04, Painkiller212, Dawid88Diablo, anetam1, ralf1976, kwasek, kuras, maruda3773, memomem, tomaszek24, rafgraf, Raf.36, yaro97, jarro40, jasiek700, jinks13, Prospector00, jacekgmk, laewa, grzes997, ziuta, waawr, jano666, bowe1969, pysiu_m, JurekO, cycek77, Trytonik, figo73, wire666, sir daro 24, skyluk, adam1neo, jeno10, pika01, drenn1, terry258, MarczelM, mwita3, bydgoszcz22, tomek i ania, mamata, wojpro, gex1, pit.7777, sproket1, mardra1, brovarek123, pentor, darekgl1968, jaco013, djlemur, Maciej2161, hellmucik, DeejayMalec, dulo123, MISIU11, tomaszo1948, elwro, lepper, demon190219, symoni2008, lopez76, buruburu, lukasz10051, virginiaa, podol76, lipenjusz, karol2005, Andi-diesel, mondia, Fedor11, zakopne, skalski72, Sebool53, jeak, ango, qczi, Tumek73, lenny79, fox57, swatfirerss, huarez44, dejw, lorak56, bazumi20, sharp_99, Lorenz, piurored123, mirek4321, Bóli123, trybsiu, foch5r, Auto-Lux, bodekk2, kriss86pl, GregorRox, FALKON69, mirunia22, magdajawor1, kiecio, Krakus51, 3366, Grzegorz72, P9N7, skajla, tat4, siwy710, BoloLVII, Sarima, aspekt2004, krepel, keram, akak1, kriszak, andy08, smoksmok31, ulaghost, danix20, slay25, gbur17, rumak83, arkadiusz271, adox80, narkusdwa, JoXs, szukisek, hopasiup, artfrst, ARTUROSE, Manias01, globline, jerry1013, papay100, aga2.05, lauenburg, kaszana27, Feniks101, vermigor, inesimariusz, serrafus, geniusloci, trez, pestka210, waldek77, kudek01, tedxvs, marian1999, konradko77, wojtasg, spoli, Marmur, robaczio9, pipipiotr, mariusz242, pepik11, robin163, gento, cichyd1, coruble, Uszka2001, jusia266, zable, buba48, polska00, biggreg, ryszardos69, sayo300, soko-p, splittt, celin, crownart, muldas, machoney1920, xard2906, angelo1969, Cirrus, zibiguzik, andjey, alex, wotar, EdiMar, topikos, weglownia, Bartekn90, buku54, pitereku, nonez, Vanisz, trixi i mila, jarecki500, aj 1971, skarabeusz, Seba1984r, szturmen, secundus, mp3de, wolfx95, Ashigari, tomex2u, and20, Zelwik, malczyce, matexe, cwiras22, jurekaw, EFBOT, monsun65, Svilesis

Archiwum:
Grudzień 2016 (871)
Listopad 2016 (2433)
Październik 2016 (1961)
Wrzesień 2016 (1857)
Sierpień 2016 (2521)
Lipiec 2016 (2605)


Pokaż wszystkie tagi:
Wejścia na Vorek.pl z:
{referer}



NABÓR NA STANOWISKO


MODERATOR        UPLOADER



Shaolin Soccer 2001 DVDRip X264 AC3 LEKTOR PL

Shaolin Soccer 2001 DVDRip X264 AC3 LEKTOR PL

reżyseria: Stephen Chow
scenariusz: Kan-Cheung Tsang, Stephen Chow
premiera: 12 lipca 2001 (Świat)
produkcja: Chiny, Hongkong
gatunek: Komedia, Akcja
ocena: 7,1 (3528 głosów)

Oddany swej sztuce, praktykujący kung-fu mężczyzna szuka sposobu, aby rozpowszechnić swój sport. Spotka na swej drodze byłego piłkarza, kóry przeżywa właśnie kryzys. Wktórce okazuje się że dwaj obcy mężczyźni mogą sobie bardzo pomóc...


Complete name: Shaolin.soccer.2001.DVDRip.x264.AC3.Dual.Audio-VQ.mkv
Format: Matroska
File size: 1.36 GiB
Duration: 1h 25mn
Overall bit rate: 2 281 Kbps
Encoded date : UTC 2010-08-05 21:48:26
Writing application: mkvmerge v4.0.0 ('The Stars were mine') built on Jun6 2010 16:18:42
Writing library : libebml v1.0.0 + libmatroska v1.0.0

Video
ID : 1
Format: AVC
Format/Info: Advanced Video Codec
Format profile: [email protected]
Format settings, CABAC : Yes
Format settings, ReFrames : 2 frames
Muxing mode: Container [email protected]
Codec ID: V_MPEG4/ISO/AVC
Duration: 1h 25mn
Bit rate: 1 513 Kbps
Width : 720 pixels
Height: 384 pixels
Display aspect ratio : 1.875
Frame rate : 25.000 fps
Color space: YUV
Chroma subsampling: 4:2:0
Bit depth: 8 bits
Scan type: Progressive
Bits/(Pixel*Frame): 0.219
Stream size: 899 MiB (64%)
Writing library : x264 core 98 r1649 c54c47d

Audio #1
ID : 2
Format: AC-3
Format/Info: Audio Coding 3
Mode extension: CM (complete main)
Codec ID: A_AC3
Duration: 1h 25mn
Bit rate mode: Constant
Bit rate: 384 Kbps
Channel(s) : 6 channels
Channel positions : Front: L C R, Side: L R, LFE
Sampling rate: 48.0 KHz
Bit depth: 16 bits
Stream size: 235 MiB (17%)
Language: Polish


Pobierz:

### WSZYSTKIE LINKI MOŻESZ POBIERAĆ NA PRZEMIAN ###

Aby zobaczyć ukryty tekst musisz być zalogowany, jeżeli nie masz konta zarejestruj się!


Haslo:

Aby zobaczyć ukryty tekst musisz być zalogowany, jeżeli nie masz konta zarejestruj się!





Podziel się !

Delicious'da Share  Share on Facebook  Friendfeed Share  Google Shared  StubmleUpon'da Share  Digg'de Share  Netvibes'de Share  Reddit'de Share RSS Feeds Subscribe!

Powrót
Przeglądasz witrynę jako gość.
Dlatego zachęcamy do rejestracji lub do zalogowania się.

Informacja
Użytkownicy z rangą Gość nie mogą dodawać komentarzy.