Menu

Download

Polub nas!
Online
W ostatnich 24 godzinach odwiedziło nas 9214 użytkowników w tym 3786 zalogowanych oraz 5428 gości. Obecnie serwis przegląda 292 użytkowników, w tym 164 zalogowanych.
aadam227, Abim, adamww1, Akacja2000, Al Bundy, alienz, alina_89, alphaup, Alworthy, andreas1166, ANDY338, anonymous92, asylum86, Aurelia, bee, bleso, bogdan85, CezaryW, christina2013, chrunchcorn, colossus1, czeslaw101, czytelnik1973, darekbus, darekpot, dariusz.n, darkangel114, darthv90, Deevil, dominous, DonCabeza, don_pabllo, dsefd, eend, EFBOT, elektrikos, elwro, entity, erik12, Finder, fox57, frodo, Funaki, gorlh, hairstyle, hans26, hermar7, Honor88, iceman7777, IHerbut, imnowak, irenek, jack85, jankowiak999, Jasmina39, Jazz_1963, Jucia83, JurekzBerlina, kajetan75, kamilllo88, kazan31, KiniaOP, kkk244240, kkrammer, KoloAndy, kololuk, kosmosek, krzysztof440, krzyzak356, lateraluspl, Lecter123, look78, lordgbyron, lukaszgt, luki1234, mac669, macaga, Mania22, Manipulatio, mar33335, marcin-kajak, marcin.strzesniewski, marcin790, marcinskwierawski, mario-k, marionet, masqinio, matearczi88, mercurium, MieciaC, mirus12345, Mithrandir, mocnet, MONel, mti007, muldas, mustaszi, muszkieter, niunio3, ossy, Panky, PanTang, pan_lukasz, pawel0027, pawiu81, pietia13, piter1976, pitereku, pjonierek, Postmann, Potter, Premium_Kosa, ps1972, pyzdra525, qubiaqu, ra88, rafacus, rafalodz, rafau, RAJZI, RaulKD, rdsxfi, remik-71, robertn5, Robertnss, robib1125, roksa, ross154, ruptak, rwrerew, safilear, saperab, sebastianzet, selak, slonik1999, Ssteffann, Stan63, stoper3, tatra500, test3003, testowy678, themi, tomaszbryant, tomcio69, tomek1000, topikos, trabson, trebla, trebugas, trechniś, turban25, ValNar, Velii65, VIVO9002, vosiara01, vvikig, whisky65, witol, wkaczka1963, wlad2207, za100s, zbyszek1408, Zelwik, zuzka007
Najgoretsze wstawki


Autor: marszalek1
Data: 8 Czerwiec 2010
Kategoria: FILMY » Lektor
0


Terminator: Ocalenie / Terminator Salvation (2009) 1080p BluRay Lektor PL

HD

Terminator: Ocalenie / Terminator Salvation (2009) 1080p BluRay Lektor PL

Reżyseria: McG
Scenariusz: John D. Brancato
Produkcja: Niemcy, USA, Wielka Brytania, Włochy
Gatunek: Akcja, Sci-Fi
Data Premiery: 2009-06-05(Polska),2009-05-14 (Świat)
Czas trwania: 02:01:58


OPIS: W filmie "Terminator Ocalenie", którego akcja rozgrywa się w post-apokaliptycznym roku 2018 występuje Christian Bale w roli Johna Connora, człowieka, którego przeznaczeniem jest poprowadzenie ruchu oporu skierowanego przeciwko Skynetowi i armii Terminatorów. Ale przyszłość, w którą wierzy Connor zostaje częściowo zmieniona na skutek pojawienia się Marcusa Wrighta (Sam Worthington), obcego, którego ostatnim wspomnieniem jest pobyt w celi śmierci. To Connor musi dowiedzieć się, czy Marcus został przysłany z przyszłości czy jest uciekinierem z przeszłości. Podczas gdy Skynet przygotowuje się do ostatecznego starcia, Connor i Marcus wyruszają w podróż, która prowadzi ich do centrum operacyjnego Skynetu, w którym odkrywają przerażającą tajemnicę, jaka kryje się za możliwym unicestwieniem rodzaju ludzkiego.



Terminator: Ocalenie / Terminator Salvation (2009) 1080p BluRay Lektor PL

Video
ID : 1
Format : AVC
Format/Info : Advanced Video Codec
Format profile : [email protected]
Format settings, CABAC : Yes
Format settings, ReFrames : 3 frames
Muxing mode : Container [email protected]
Codec ID : V_MPEG4/ISO/AVC
Duration : 1h 54mn
Bit rate : 7 105 Kbps
Nominal bit rate : 6 448 Kbps
Width : 1 920 pixels
Height : 1 080 pixels
Display aspect ratio : 16:9
Frame rate : 23.976 fps
Color space : YUV
Chroma subsampling : 4:2:0
Bit depth : 8 bits
Scan type : Progressive
Bits/(Pixel*Frame) : 0.143
Stream size : 5.70 GiB (90%)
Writing library : x264 core 96 r1613 81e75e9


Audio
ID : 2
Format : AC-3
Format/Info : Audio Coding 3
Mode extension : CM (complete main)
Codec ID : A_AC3
Duration : 1h 54mn
Bit rate mode : Constant
Bit rate : 640 Kbps
Channel(s) : 6 channels
Channel positions : Front: L C R, Side: L R, LFE
Sampling rate : 48.0 KHz
Stream size : 525 MiB (8%)
Title : 3/2+1
Language : Polish
Rozmiar: 6.34 GB



.:: DOWNLOAD ::.
Aby zobaczyć ukryty tekst musisz być zalogowany, jeżeli nie masz konta zarejestruj się!


No pass



Podziel się !

Delicious'da Share  Share on Facebook  Friendfeed Share  Google Shared  StubmleUpon'da Share  Digg'de Share  Netvibes'de Share  Reddit'de Share RSS Feeds Subscribe!

Przeglądasz witrynę jako gość.
Dlatego zachęcamy do rejestracji lub do zalogowania się.

Informacja
Użytkownicy z rangą Gość nie mogą dodawać komentarzy.