Menu

Download

Dziś nas odwiedzili:
Archiwum:
Grudzień 2016 (949)
Listopad 2016 (2431)
Październik 2016 (1961)
Wrzesień 2016 (1857)
Sierpień 2016 (2521)
Lipiec 2016 (2605)


Pokaż wszystkie tagi:
Wejścia na Vorek.pl z:
{referer}



NABÓR NA STANOWISKO


MODERATOR        UPLOADER



Bad Boys (1995) 1080p BluRay Lektor PL

HD

Bad Boys (1995) 1080p BluRay Lektor PL

Produkcja: USA
Gatunek: Sensacyjny
Data premiery: 1995-12-31(Polska),1995-04-07 (Świat)
Reżyseria: Michael Bay
Scenariusz: Doug Richardson, Michael Barrie(więcej...)
Ocena: 8,14/10
Czas trwania: 118


OPIS: Pracownicy wydziału antynarkotykowego policji w Miami, Marcus Burnett i Mike Lowrey mogą pochwalić się nie lada sukcesem - udaje im się przechwycić heroinę o wartości 100 mln dolarów. Niestety - już następnego dnia heroina zostaje skradziona z posterunku. Na jej odzyskanie, Burnett i Lowrey mają zaledwie trzy dni. Inaczej ich posterunek zostanie zamknęty. Walcząc z czasem, śledzą mistrza złodziei, tajemniczego Foucheta. Przestępcę może zidentyfikować jedyny, w dodatku dość kłopotliwy i gadatliwy świadek: piękna, ponętna Julie Mott. Aby pozyskać jej zaufanie, gliniarze zmuszeni są zamienić się rolami. Tak więc, żonaty Marcus wciela się w rolę playboya, bogatego glinę jeżdżącego na co dzień Porsche, a jego partner Mike staje się głową rodziny.



Bad Boys (1995) 1080p BluRay Lektor PL

General
Complete name : Bad.Boys.1995.PL.1080p.HDTV.x264-PELE144.mkv
Format : Matroska
File size : 8.14 GiB
Duration : 1h 53mn
Overall bit rate : 10.2 Mbps
Encoded date : UTC 2009-09-13 14:53:47
Writing application : mkvmerge v2.9.7 ('Tenderness') built on Jul 1 2009 18:43:35
Writing library : libebml v0.7.7 + libmatroska v0.8.1

Video
ID : 1
Format : AVC
Format/Info : Advanced Video Codec
Format profile : [email protected]
Format settings, CABAC : Yes
Format settings, ReFrames : 3 frames
Muxing mode : Container [email protected]
Codec ID : V_MPEG4/ISO/AVC
Duration : 1h 53mn
Bit rate : 9 002 Kbps
Width : 1 916 pixels
Height : 1 080 pixels
Display aspect ratio : 16:9
Frame rate : 25.000 fps
Resolution : 24 bits
Colorimetry : 4:2:0
Scan type : Progressive
Bits/(Pixel*Frame) : 0.174
Stream size : 7.16 GiB (88%)
Title : 1080p

Audio #1
ID : 2
Format : AC-3
Format/Info : Audio Coding 3
Codec ID : A_AC3
Duration : 1h 53mn
Bit rate mode : Constant
Bit rate : 640 Kbps
Channel(s) : 6 channels
Channel positions : Front: L C R, Surround: L R, LFE
Sampling rate : 48.0 KHz
Video delay : 24ms
Stream size : 521 MiB (6%)
Title : Polish (AC3 640 kbps)
Language : Polish

Audio #2
ID : 3
Format : AC-3
Format/Info : Audio Coding 3
Codec ID : A_AC3
Duration : 1h 53mn
Bit rate mode : Constant
Bit rate : 384 Kbps
Channel(s) : 6 channels
Channel positions : Front: L C R, Surround: L R, LFE
Sampling rate : 48.0 KHz
Video delay : 12ms
Stream size : 313 MiB (4%)
Title : English (AC3 384 kbps)
Language : English

Text #1
ID : 4
Format : UTF-8
Codec ID : S_TEXT/UTF8
Codec ID/Info : UTF-8 Plain Text
Title : Polish
Language : Polish

Text #2
ID : 5
Format : UTF-8
Codec ID : S_TEXT/UTF8
Codec ID/Info : UTF-8 Plain Text
Title : English
Language : English



Aby zobaczyć ukryty tekst musisz być zalogowany, jeżeli nie masz konta zarejestruj się!


No pass



Podziel się !

Delicious'da Share  Share on Facebook  Friendfeed Share  Google Shared  StubmleUpon'da Share  Digg'de Share  Netvibes'de Share  Reddit'de Share RSS Feeds Subscribe!

Powrót
Przeglądasz witrynę jako gość.
Dlatego zachęcamy do rejestracji lub do zalogowania się.

Informacja
Użytkownicy z rangą Gość nie mogą dodawać komentarzy.