Menu

Download

Dziś nas odwiedzili:
Archiwum:
Grudzień 2016 (174)
Listopad 2016 (2438)
Październik 2016 (1967)
Wrzesień 2016 (1859)
Sierpień 2016 (2523)
Lipiec 2016 (2609)


Pokaż wszystkie tagi:
Wejścia na Vorek.pl z:
{referer}



NABÓR NA STANOWISKO


MODERATOR        UPLOADER



Wspólna chata/Parental Guidance(2012)BluRay.720p.x264.DTS.AC3 Lektor PL

Wspólna chata/Parental Guidance(2012)BluRay.720p.x264.DTS.AC3 Lektor PL


gatunek: Komedia
produkcja: USA
premiera: 25 grudnia 2012 (świat)
reżyseria: Andy Fickman
scenariusz: Lisa AddarioLowell GanzBabaloo MandelJoe Syracuse


Komedia w reżyserii Andy’ego Fickmana (”To znowu ty”, ”Plan gry”). Matka trojga dorastających dzieci zmuszona jest wyjechać do pracy do innego miasta. Opiekę nad dziećmi powierza więc ekscentrycznym dziadkom, którzy wyznają nieszablonowe metody wychowawcze, godne XXI wieku. W rolach głównych: Billy Crystal (”Depresja gangstera”), Bette Middler (”Zmowa pierwszych żon”) i laureatka Oscara Marisa Tomei (”Mój kuzyn Vinny”).


General
      Format : Matroska
      Format version : Version 4 / Version 2
      File size : 5.33 GiB
      Duration : 1h 44mn
      Overall bit rate : 7 296 Kbps
   Video #1
      Format : AVC
      Duration : 1h 44mn
      Bit rate : 5 342 Kbps
      Width : 1 280 pixels
      Height : 690 pixels
      Frame rate : 23.976 fps
      Title : Parental.Guidance.2012.BluRay.720p.DTS.x264
      Language : English
   Audio #2
      Format : AC-3
      Channel(s) : 6 channels
      Channel positions : Front: L C R, Side: L R, LFE
      Sampling rate : 48.0 KHz
      Bit depth : 16 bits
      Stream size : 335 MiB (6%)
      Language : Polish
      Default : Yes
   Audio #3
      Format : DTS
      Channel(s) : 6 channels
      Channel positions : Front: L C R, Side: L R, LFE
      Sampling rate : 48.0 KHz
      Bit depth : 24 bits
      Stream size : 1.10 GiB (21%)
      Language : English
      Default : No



EgoFiles
Aby zobaczyć ukryty tekst musisz być zalogowany, jeżeli nie masz konta zarejestruj się!



BRAK HASŁA



Podziel się !

Delicious'da Share  Share on Facebook  Friendfeed Share  Google Shared  StubmleUpon'da Share  Digg'de Share  Netvibes'de Share  Reddit'de Share RSS Feeds Subscribe!

Powrót
Przeglądasz witrynę jako gość.
Dlatego zachęcamy do rejestracji lub do zalogowania się.

Informacja
Użytkownicy z rangą Gość nie mogą dodawać komentarzy.