Menu

Download

Dziś nas odwiedzili:
wojpro, gex1, pit.7777, sproket1, mardra1, brovarek123, pentor, darekgl1968, jaco013, djlemur, Maciej2161, hellmucik, DeejayMalec, dulo123, MISIU11, tomaszo1948, elwro, lepper, demon190219, symoni2008, lopez76, buruburu, lukasz10051, virginiaa, podol76, lipenjusz, karol2005, Andi-diesel, mondia, Fedor11, zakopne, skalski72, Sebool53, jeak, ango, qczi, Tumek73, lenny79, fox57, swatfirerss, huarez44, dejw, lorak56, bazumi20, sharp_99, Lorenz, piurored123, mirek4321, Bóli123, trybsiu, foch5r, Auto-Lux, bodekk2, kriss86pl, GregorRox, FALKON69, mirunia22, magdajawor1, kiecio, Krakus51, 3366, Grzegorz72, P9N7, skajla, tat4, siwy710, BoloLVII, Sarima, aspekt2004, krepel, keram, akak1, kriszak, andy08, smoksmok31, ulaghost, danix20, slay25, gbur17, rumak83, arkadiusz271, adox80, narkusdwa, JoXs, szukisek, hopasiup, artfrst, ARTUROSE, Manias01, globline, jerry1013, papay100, aga2.05, lauenburg, kaszana27, Feniks101, vermigor, inesimariusz, serrafus, geniusloci, trez, pestka210, waldek77, kudek01, tedxvs, marian1999, konradko77, wojtasg, spoli, Marmur, robaczio9, pipipiotr, mariusz242, pepik11, robin163, gento, cichyd1, coruble, Uszka2001, jusia266, zable, buba48, polska00, biggreg, ryszardos69, sayo300, soko-p, splittt, celin, crownart, muldas, machoney1920, xard2906, angelo1969, Cirrus, zibiguzik, andjey, alex, wotar, EdiMar, topikos, weglownia, Bartekn90, buku54, pitereku, nonez, Vanisz, trixi i mila, jarecki500, aj 1971, skarabeusz, Seba1984r, szturmen, secundus, mp3de, wolfx95, Ashigari, tomex2u, and20, Zelwik, malczyce, matexe, cwiras22, jurekaw, EFBOT, monsun65, Svilesis

Archiwum:
Grudzień 2016 (855)
Listopad 2016 (2433)
Październik 2016 (1961)
Wrzesień 2016 (1857)
Sierpień 2016 (2521)
Lipiec 2016 (2605)


Pokaż wszystkie tagi:
Wejścia na Vorek.pl z:
{referer}



NABÓR NA STANOWISKO


MODERATOR        UPLOADER

Autor: aicid
Data: 19 Marzec 2013
Kategoria: FILMY » Lektor
0


V jak Vendetta - V for Vendetta (2005) [DVDRip] [RMVB] [Lektor PL]
PODGLĄD:
http://imagetwist.com/fe0cci20ukh8/7106959.3.jpg.html
V jak Vendetta - V for Vendetta (2005) [DVDRip] [RMVB] [Lektor PL]

http://imagetwist.com/ht1szcknl8rb/V_jak_Vendetta__2005__DVDRip__Rmvb_Lektor_PL.rmvb_thumbs__2013.03.18_17.51.28_.jpg.html
V jak Vendetta - V for Vendetta (2005) [DVDRip] [RMVB] [Lektor PL]

BRAK -> filmweb
produkcja: Niemcy, USA, Wielka Brytania
gatunek: Sci-Fi
premiera: 7 kwietnia 2006 (Polska) 13 lutego 2006 (Świat)
reżyseria: James McTeigue
scenariusz: Andy Wachowski, Lana Wachowski

OPIS:
Adaptacja kultowego komiksu Alana Moore'a. Rzecz dzieje się w totalitarnej Anglii, gdzie społeczeństwo jest skutecznie zastraszane i manipulowane przez aparat władzy. Jedyną osobą, która nadal stawia opór, jest bojownik o wolność przebrany za osobę Guya Fawkesa - V (Hugo Weaving). V walczy z panującym ustrojem dokonując zamachów terrorystycznych na główne ośrodki przekazu i gmachy budynków rządowych. Pewnego dnia uwalnia z rąk agentów rządowych Evey Hammond (Natalie Portman). Evey odkrywa, iż wbrew powszechnemu uznaniu V nie jest terrorystą, lecz osobą w której skupiają się wszystkie idee, o których jej naród zapomniał. Od tej pory, od 5 Listopada V będzie kontynuował swoją krucjatę mszcząc się za swoje krzywdy i za cierpienia narodu prowadząc Anglię ku wolności.

OBSADA:
Natalie Portman...Evey Hammond
Hugo Weaving...V
Stephen Rea...Finch
John Hurt...Adam Sutler
Rupert Graves...Dominic
Sinéad Cusack...Dr Delia Surridge
Stephen Fry...Gordon Deitrich


Informacje techniczne:
Format : RealMedia
File size : 415 MiB
Duration : 2h 7mn
Overall bit rate : 448 Kbps
Video #1
ID : 1
Format : RealVideo 4
Codec ID : RV40
Codec ID/Info : Based on AVC (H.264), Real Player 9
Duration : 2h 7mn
Bit rate : 384 Kbps
Width : 640 pixels
Height : 272 pixels
Display aspect ratio : 2.35:1
Frame rate : 25.000 fps
Bits/(Pixel*Frame) : 0.088
Stream size : 349 MiB (84%)
Audio #0
ID : 0
Format : Cooker
Codec ID : cook
Codec ID/Info : Based on G.722.1, Real Player 6
Duration : 2h 7mn
Bit rate : 64.1 Kbps
Channel(s) : 2 channels
Sampling rate : 44.1 KHz
Bit depth : 16 bits
Stream size : 58.4 MiB (14%)


EGOFILES:
Aby zobaczyć ukryty tekst musisz być zalogowany, jeżeli nie masz konta zarejestruj się!

CATSHARE:
Aby zobaczyć ukryty tekst musisz być zalogowany, jeżeli nie masz konta zarejestruj się!



Podziel się !

Delicious'da Share  Share on Facebook  Friendfeed Share  Google Shared  StubmleUpon'da Share  Digg'de Share  Netvibes'de Share  Reddit'de Share RSS Feeds Subscribe!

Powrót
Przeglądasz witrynę jako gość.
Dlatego zachęcamy do rejestracji lub do zalogowania się.

Informacja
Użytkownicy z rangą Gość nie mogą dodawać komentarzy.