Menu

Download

Dziś nas odwiedzili:
Archiwum:
Grudzień 2016 (225)
Listopad 2016 (2437)
Październik 2016 (1966)
Wrzesień 2016 (1859)
Sierpień 2016 (2523)
Lipiec 2016 (2609)


Pokaż wszystkie tagi:
Wejścia na Vorek.pl z:
{referer}



NABÓR NA STANOWISKO


MODERATOR        UPLOADER

Autor: aicid
Data: 9 Marzec 2013
Kategoria: FILMY » Lektor
0


Bibliotekarz Tajemnica włóczni - Librarian Quest for the Spear 2004 [DVDRip.RMVB] [Lektor PL]

Produkcja: USA
Gatunek: Przygodowy, Fantasy
Premiera: Grudzień 2004r.
Czas trwania: 1h 45m.

reżyseria: Peter Winther
scenariusz: David N. Titcher

Opis:

Mól książkowy Flynn Carsen otrzymuje ofertę pracy jako bibliotekarz. Jego nowym zadaniem jest pilnowanie tajemniczego pokoju w podziemiach biblioteki, w którym znajdują się największe legendarne skarby świata, takie jak Excalibur czy Puszka Pandory. Przechowywana jest tu również jedna z trzech części świętej włóczni. Osoba, która jest w jej posiadaniu, będzie w stanie posiąść absolutną władzę nad światem.
Gdy pewnej nocy oszczep zostaje skradziony, Flynn musi podjąć się odnalezienia skradzionego artefaktu oraz dwóch pozostałych części włóczni


http://imagetwist.com/it1wgu0diyxq/7028699.3.jpg.html
Bibliotekarz Tajemnica włóczni - Librarian Quest for the Spear 2004 [DVDRip.RMVB] [Lektor PL]
http://imagetwist.com/g2u6ejgnr60r/Bibliotekarz_Tajemnica_w____czni_PL.rmvb_thumbs__2013.03.08_16.11.23_.jpg.html
Bibliotekarz Tajemnica włóczni - Librarian Quest for the Spear 2004 [DVDRip.RMVB] [Lektor PL]

Obsada:

Noah Wyle - Flynn Carsen
Kelly Hu - Członkini Braterstwa Węży
Kyle MacLachlan - Edward Wilde
Sonya Walger - Nicole Noone
Bob Newhart - Judson

Format : RealMedia
File size : 347 MiB
Duration : 1h 45mn
Overall bit rate : 451 Kbps

Video
ID : 1
Format : RealVideo 4
Codec ID : RV40
Codec ID/Info : Based on AVC (H.264), Real Player 9
Duration : 1h 45mn
Bit rate : 387 Kbps
Width : 608 pixels
Height : 336 pixels
Display aspect ratio : 16:9
Frame rate : 25.000 fps
Bits/(Pixel*Frame) : 0.076
Stream size : 293 MiB (84%)

Audio
ID : 0
Format : Cooker
Codec ID : cook
Codec ID/Info : Based on G.722.1, Real Player 6
Duration : 1h 45mn
Bit rate : 64.1 Kbps
Channel(s) : 2 channels
Sampling rate : 44.1 KHz
Bit depth : 16 bits
Stream size : 48.5 MiB (14%)

EGOFILES:
Aby zobaczyć ukryty tekst musisz być zalogowany, jeżeli nie masz konta zarejestruj się!

CATSHARE:
Aby zobaczyć ukryty tekst musisz być zalogowany, jeżeli nie masz konta zarejestruj się!

HELLUPLOAD:
Aby zobaczyć ukryty tekst musisz być zalogowany, jeżeli nie masz konta zarejestruj się!



Podziel się !

Delicious'da Share  Share on Facebook  Friendfeed Share  Google Shared  StubmleUpon'da Share  Digg'de Share  Netvibes'de Share  Reddit'de Share RSS Feeds Subscribe!

Powrót
Przeglądasz witrynę jako gość.
Dlatego zachęcamy do rejestracji lub do zalogowania się.

Informacja
Użytkownicy z rangą Gość nie mogą dodawać komentarzy.