Menu

Download

Dziś nas odwiedzili:
Archiwum:
Grudzień 2016 (158)
Listopad 2016 (2438)
Październik 2016 (1967)
Wrzesień 2016 (1859)
Sierpień 2016 (2523)
Lipiec 2016 (2609)


Pokaż wszystkie tagi:
Wejścia na Vorek.pl z:
{referer}



NABÓR NA STANOWISKO


MODERATOR        UPLOADER

Autor: aicid
Data: 9 Marzec 2013
Kategoria: FILMY » Lektor
0


Bibliotekarz 2 Tajemnica kopalni króla Salomona - Librarian Return to King Solomon's Mines 2006 [DVDRip.RMVB] [Lektor PL]

Produkcja: USA
Gatunek: Przygodowy, Fantasy
Premiera: Październik 2006r.
Czas trwania: 1h 28m.

reżyseria: Jonathan Frakes
scenariusz: Marco Schnabel

Opis:

Druga część przygód Flynna Carsena, młodego pracownika niezwykłej Biblioteki Metropolitalnej, gdzie zgromadzone są najcenniejsze i legendarne skarby cywilizacji, wśród nich: puszka Pandory, Arka Przymierza, Excalibur i wiele innych. Pewnego dnia Flynn otrzymuje starożytny egipski zwój. Badając jego tajemnicze wzory i symbole, odkrywa, że należał on od Króla Salomona. Prawdopodobnie stanowi on mapę do owianych legendą kopalni Króla Salomona i jest kluczem do odkrycia jednej z największych i niewyjaśnionych dotąd tajemnic.


http://imagetwist.com/rgveago0s5kf/7525818.3.jpg.html
Bibliotekarz 2 Tajemnica kopalni króla Salomona - Librarian Return to King Solomon's Mines 2006 [DVDRip.RMVB] [Lektor PL]
http://imagetwist.com/ag0iwshgclc8/Bibliotekarz_2_Tajemnice_kopalni_Salomona__2006__.rmvb_thumbs__2013.03.08_16.11.04_.jpg.html
Bibliotekarz 2 Tajemnica kopalni króla Salomona - Librarian Return to King Solomon's Mines 2006 [DVDRip.RMVB] [Lektor PL]

Obsada:
Bob Newhart - Judson
Lisa Brenner - Debra
Olympia Dukakis - Margie Carsen
Noah Wyle - Flynn Carsen
Jane Curtin - Charlene

Format : RealMedia
File size : 302 MiB
Duration : 1h 28mn
Overall bit rate : 471 Kbps

Video
ID : 1
Format : RealVideo 4
Codec ID : RV40
Codec ID/Info : Based on AVC (H.264), Real Player 9
Duration : 1h 28mn
Bit rate : 406 Kbps
Width : 608 pixels
Height : 336 pixels
Display aspect ratio : 16:9
Frame rate : 30.000 fps
Bits/(Pixel*Frame) : 0.066
Stream size : 257 MiB (85%)

Audio
ID : 0
Format : Cooker
Codec ID : cook
Codec ID/Info : Based on G.722.1, Real Player 6
Duration : 1h 28mn
Bit rate : 64.1 Kbps
Channel(s) : 2 channels
Sampling rate : 44.1 KHz
Bit depth : 16 bits
Stream size : 40.5 MiB (13%)

EGOFILES:
Aby zobaczyć ukryty tekst musisz być zalogowany, jeżeli nie masz konta zarejestruj się!

CATSHARE:
Aby zobaczyć ukryty tekst musisz być zalogowany, jeżeli nie masz konta zarejestruj się!

HELLUPLOAD:
Aby zobaczyć ukryty tekst musisz być zalogowany, jeżeli nie masz konta zarejestruj się!



Podziel się !

Delicious'da Share  Share on Facebook  Friendfeed Share  Google Shared  StubmleUpon'da Share  Digg'de Share  Netvibes'de Share  Reddit'de Share RSS Feeds Subscribe!

Powrót
Przeglądasz witrynę jako gość.
Dlatego zachęcamy do rejestracji lub do zalogowania się.

Informacja
Użytkownicy z rangą Gość nie mogą dodawać komentarzy.