Menu

Download

Dziś nas odwiedzili:
rodzynek1983, kkk244240, draco, cyganek, Abdul_wisimulacha, geniekw81, rutkowski20, skorpion82, zyga, mwita3, jusia266, pawo, JONYS, mlody2205, renka, scorpions793, wlodek66, siwek-naklo, narkusdwa, huano877, mart1nof, firex3211, podol76, niguel, slapot78, janek1888, bobeslaw80, bollos, fox57, lukasz666666, RevolU, MARIULA500, seba512, geniu7, Raf.36, zadlo80, blackbird140, trixi i mila, dumdum23, martin7011, laewa, dakrot, skorpion653202, robertcacek, kuras, jacaalvaro, rufinone, andy08, ango, rumak83, kanapkatorpedo, Matthew67, amus2, bowe1969, Ireland29, dariusz77, leszeczek, Proton_1x, romanirena, tomek i ania, ravler89, amfa07, anetam1, marcindziki1, eneasz, bastion4, sproket1, sieq0, michal3670, stanisław, Krakus51, skrzyneczka112, karbor83, trybsiu, cyrzan4, robanek01, Liar, piterd14, wfman, janek12, kamyk70, maruda3773, snayper, solgerx, kikir3, miecio28, landryn, kazosokrates, keczo, bardini, pika01, joyeczek, djlemur, inesimariusz, n-gregory, wojtas1000, kako181, mart73, terry258, wojslo5, pit.7777, mrozek8, Painkiller212, yaro97, soja, cichyd1, CCC59KXJ, enigma1952, sandoran1962, HYDRODAREK, hopasiup, MIREK11111, lukasz10051, posejdon, krzysztofko, crashed323, DeejayMalec, wasyl75, pbpbpbpbpb, margaretka62, biznesmen66, pysiu_m, cybulx, geniusloci, wytaczarz44, bodek63, krepel, darekbus, lonej1, Krzysztof1973, kwankrzy1, kanzas, adamusasior122, Grav1ty, piterolo74, womi10, pentor, ulaghost, kriss86pl, jozielona, pawnan, vasiwasyl, figo73, slabin, coruble, tomaszo1948, darodaro, jeno10, dariuszlbn, smina, trez, Fedor11, lukaszek17, Andi-diesel, topikos, klymvm, Sdrov, robek4, piurored123, bodekk2, akak1, bylik71, dejw, tobi180, Grzegorz72, albert6020, kwasek, szybki811, bil, tadeuszo7, Estek1, stanley_pl, xxvxx5, zibi19979, crownart, Dawid88Diablo, Trytonik, wotar, skajla, cukierek-85, pirek, iwonaro, edmund54, mogo76, karton1, mani4444, MARTEX01, jupkeennss, Feniks101, ralf1976, adasek.u, Uszka2001, lysy1710, igi2, mariant, bolo335, zajac26, adox80, zakopne, zpcytadela, JoXs, buruburu, zbeer, pepik11, mondia, robaczio9, Manias01, gruby1001, topolski, weenzer, eree, Ewelina05, kudek01, tomaszlegion, Tomciu78, Veni, victory04, jeak, marekdudi, tomex2u, marek.k30, kasiaj4, splittt, barteklublin111, dudikn, malczyce, muldas, misiu1185, mp3de, MarczelM, ARTUROSE, yonk, lorak56, mardra1, sharkus, lepper, jedrek00711, and20, arkadiusz271, ciechom, foch5r, kasi, robin163, brovarek123, GunHead, slay25, lordsiur, pychu007, elasuc, baraxx, dorkasevi, Bartekn90, ziuta, symoni2008, 3366, spoli, aspekt2004, michas86, bydgoszcz22, pipipiotr, karol2005, kurosumi, przemograf, szery17, riko121, celin, jano666, tedxvs, jerry1013, krewetka105, xard2906, sir daro 24, andrzej15181, biggreg, jinks13, mks, gawron.1983, angelo1969, syaro, iruss3, wenancjusz21, porwichp, Ashigari, Cirrus, lucky170, mariusz242, skarabeusz, andjey, jpwko, Zelwik, alex, EdiMar, jarecki500, romuskat, aj 1971, bazumi20, Kamirllo105, adikos34, buku54, Auto-Lux, waldek77, tristan_mk, virginiaa, ramon, jarro40, Bab66, Bóli123, -julius-, emilianox, Karlos2150, szturmen, gargamel_50, tom7517, puedros57, Finder, matexe, gbur17, Svilesis, momo1410, Vanisz, 17051970, zbok69, LeoMarkus, secundus, EFBOT

Archiwum:
Grudzień 2016 (944)
Listopad 2016 (2431)
Październik 2016 (1961)
Wrzesień 2016 (1857)
Sierpień 2016 (2521)
Lipiec 2016 (2605)


Pokaż wszystkie tagi:
Wejścia na Vorek.pl z:
{referer}



NABÓR NA STANOWISKO


MODERATOR        UPLOADER

Autor: aicid
Data: 7 Marzec 2013
Kategoria: FILMY » Lektor
0


Bibliotekarz 3 Klątwa kielicha Judasza - Librarian Curse of the Judas Chalice 2008 [DVDRip.RMVB] [Lektor PL]

Produkcja: USA
Gatunek: Przygodowy, Fantasy
Premiera: Grudzień 2008r.
Czas trwania: 1h 30m

reżyseria: Jonathan Frakes
scenariusz: Marco Schnabel

Opis:

Kolejna, trzecia część przygód bohaterskiego bibliotekarza rozpoczyna się w londyńskim domu aukcyjnym. Flynn daje się poznać jako przebojowy zdobywca zabytkowych dzieł sztuki i naraża przez to na szwank budżet Biblioteki. Dodatkowo młody mężczyzna nadal cierpi z powodu samotności, dlatego jego współpracownicy zgodnie uważają, że należy mu się urlop. Bibliotekarz postanawia wykorzystać wolny czas na odwiedzenie Nowego Orleanu, gdyż miasto to częstokroć pojawiało się w jego niepokojących wizjach. Młody człowiek nie wie, że w tym samym czasie na Uniwersytecie w Bukareszcie przedstawiciele rosyjskiego rządu omawiali z jednym z profesorów poszukiwania ciała Drakuli oraz cennego artefaktu – Kielicha Judasza. Bibliotekarz ciamajda z awanturniczym zacięciem kolejny raz stoczy walkę dobra ze złem. Jego przeciwnikami podczas fascynujących i pełnych przygód podróży będą tym razem wampiry.


http://imagetwist.com/f3yex52w3q0s/7291038.3.jpg.html
Bibliotekarz 3 Klątwa kielicha Judasza - Librarian Curse of the Judas Chalice 2008 [DVDRip.RMVB] [Lektor PL]
http://imagetwist.com/5ggr3610xx29/Bibliotekarz_3_Klatwa_Kielicha_Judasza_2008__DVDRip___RMVB___Lektor_PL__CD1.rmvb_thumbs__2013.03.06_18.35.34_.jpg.html
Bibliotekarz 3 Klątwa kielicha Judasza - Librarian Curse of the Judas Chalice 2008 [DVDRip.RMVB] [Lektor PL]
http://imagetwist.com/tczerwpm011v/Bibliotekarz_3_Klatwa_Kielicha_Judasza_2008__DVDRip___RMVB___Lektor_PL__CD2.rmvb_thumbs__2013.03.06_18.37.05_.jpg.html
Bibliotekarz 3 Klątwa kielicha Judasza - Librarian Curse of the Judas Chalice 2008 [DVDRip.RMVB] [Lektor PL]

Obsada:

Noah Wyle - Flynn Carsen
Stana Katic - Simone Renoir
Bruce Davison - Profesor Lazlo
Bob Newhart - Judson
Jane Curtin - Charlene

CD 1:

Format : RealMedia
File size : 145 MiB
Duration : 41mn 42s
Overall bit rate : 470 Kbps

Video
ID : 1
Format : RealVideo 4
Codec ID : RV40
Codec ID/Info : Based on AVC (H.264), Real Player 9
Duration : 41mn 42s
Bit rate : 406 Kbps
Width : 736 pixels
Height : 540 pixels
Display aspect ratio : 4:3
Frame rate : 25.000 fps
Bits/(Pixel*Frame) : 0.041
Stream size : 121 MiB (84%)

Audio
ID : 0
Format : Cooker
Codec ID : cook
Codec ID/Info : Based on G.722.1, Real Player 6
Duration : 41mn 44s
Bit rate : 64.1 Kbps
Channel(s) : 2 channels
Sampling rate : 44.1 KHz
Bit depth : 16 bits
Stream size : 19.1 MiB (13%)


CD 2:

Format : RealMedia
File size : 148 MiB
Duration : 44mn 59s
Overall bit rate : 444 Kbps

Video
ID : 1
Format : RealVideo 4
Codec ID : RV40
Codec ID/Info : Based on AVC (H.264), Real Player 9
Duration : 44mn 59s
Bit rate : 380 Kbps
Width : 736 pixels
Height : 540 pixels
Display aspect ratio : 4:3
Frame rate : 25.000 fps
Bits/(Pixel*Frame) : 0.038
Stream size : 122 MiB (83%)

Audio
ID : 0
Format : Cooker
Codec ID : cook
Codec ID/Info : Based on G.722.1, Real Player 6
Duration : 45mn 0s
Bit rate : 64.1 Kbps
Channel(s) : 2 channels
Sampling rate : 44.1 KHz
Bit depth : 16 bits
Stream size : 20.6 MiB (14%)

EGOFILES:
Aby zobaczyć ukryty tekst musisz być zalogowany, jeżeli nie masz konta zarejestruj się!

CATSHARE:
Aby zobaczyć ukryty tekst musisz być zalogowany, jeżeli nie masz konta zarejestruj się!

HELLUPLOAD:
Aby zobaczyć ukryty tekst musisz być zalogowany, jeżeli nie masz konta zarejestruj się!



Podziel się !

Delicious'da Share  Share on Facebook  Friendfeed Share  Google Shared  StubmleUpon'da Share  Digg'de Share  Netvibes'de Share  Reddit'de Share RSS Feeds Subscribe!

Powrót
Przeglądasz witrynę jako gość.
Dlatego zachęcamy do rejestracji lub do zalogowania się.

Informacja
Użytkownicy z rangą Gość nie mogą dodawać komentarzy.