Menu

Download

Dziś nas odwiedzili:
Archiwum:
Grudzień 2016 (813)
Listopad 2016 (2433)
Październik 2016 (1961)
Wrzesień 2016 (1857)
Sierpień 2016 (2521)
Lipiec 2016 (2605)


Pokaż wszystkie tagi:
Wejścia na Vorek.pl z:
{referer}



NABÓR NA STANOWISKO


MODERATOR        UPLOADER

Autor: aicid
Data: 5 Marzec 2013
Kategoria: FILMY » Lektor
0


Klątwa czarownicy wikingów - Volvens forbandelse 2009 [DVDRip XviD] [Lektor PL]

czas trwania: 1 godz. 33 min.
gatunek: Familijny, Przygodowy
produkcjaania
premiera: 27 marca 2009 (Świat) 2009-03-27
reżyseria: Mogens H. Christiansen
scenariusz: Ina Bruhn

Opis:
Rodzice 15-letniego Valdemara (Jonas Wandschneider) wyjeżdżają na wakacje, zostawiając pod jego opieką młodszą siostrę Sille (Clara Maria Bahamondes). Gdy nastolatkowi potrzeba urozmaicenia, postanawia wybrać się na przejażdżkę samochodem ojca. Po powrocie do domu okazuje się, że nowe auto jest uszkodzone. Chłopakowi nie pozostaje nic innego, jak naprawa samochodu, zanim wrócą rodzice. Wtedy na jego drodze staje nauczyciel fizyki Benedict (Jakob Cedergren), który proponuje mu pieniądze w zamian za pomoc w wypróbowaniu swojego najnowszego wynalazku. Wkrótce wychodzi na jaw, że jest to maszyna czasu i Valdemar przenosi się do X wieku.


Obsada:

Stine Stengade -V?lven
Jakob Cedergren -Jotan / Benedict
Jonas Wandschneider -Valdemar
Clara Maria Bahamondes -Sille
Puk Scharbau -Louise
Lars Hjortshj -Mechanik

http://imagetwist.com/1flphzkvgaiv/7241324.3.jpg.html
Klątwa czarownicy wikingów - Volvens forbandelse 2009 [DVDRip XviD] [Lektor PL]
http://imagetwist.com/aremxnz1srih/Klatwa.czarownicy.wikingow.2009.PL.DVDRip.XviD.avi_thumbs__2013.03.04_15.01.08_.jpg.html
Klątwa czarownicy wikingów - Volvens forbandelse 2009 [DVDRip XviD] [Lektor PL]

Dane techniczne:

Format : AVI
Format/Info : Audio Video Interleave
File size : 808 MiB
Duration : 1h 30mn
Overall bit rate : 1 253 Kbps
Writing application : VirtualDubMod 1.5.10.2 (build 2542/release)
Writing library : VirtualDubMod build 2542/release

Video
ID : 0
Format : MPEG-4 Visual
Format profile : [email protected]
Format settings, BVOP : No
Format settings, QPel : No
Format settings, GMC : No warppoints
Format settings, Matrix : Default (H.263)
Codec ID : XVID
Codec ID/Hint : XviD
Duration : 1h 30mn
Bit rate : 1 119 Kbps
Width : 640 pixels
Height : 360 pixels
Display aspect ratio : 16:9
Frame rate : 25.000 fps
Color space : YUV
Chroma subsampling : 4:2:0
Bit depth : 8 bits
Scan type : Progressive
Compression mode : Lossy
Bits/(Pixel*Frame) : 0.194
Stream size : 722 MiB (89%)
Writing library : Magic0432

Audio
ID : 1
Format : MPEG Audio
Format version : Version 1
Format profile : Layer 3
Mode : Joint stereo
Codec ID : 55
Codec ID/Hint : MP3
Duration : 1h 27mn
Bit rate mode : Constant
Bit rate : 128 Kbps
Channel(s) : 2 channels
Sampling rate : 44.1 KHz
Compression mode : Lossy
Delay relative to video : 3s 0ms
Stream size : 80.4 MiB (10%)
Alignment : Split accross interleaves
Interleave, duration : 41 ms (1.03 video frame)
Interleave, preload duration : 500 ms

EGOFILES:
Aby zobaczyć ukryty tekst musisz być zalogowany, jeżeli nie masz konta zarejestruj się!

CATSHARE:
Aby zobaczyć ukryty tekst musisz być zalogowany, jeżeli nie masz konta zarejestruj się!



Podziel się !

Delicious'da Share  Share on Facebook  Friendfeed Share  Google Shared  StubmleUpon'da Share  Digg'de Share  Netvibes'de Share  Reddit'de Share RSS Feeds Subscribe!

Powrót
Przeglądasz witrynę jako gość.
Dlatego zachęcamy do rejestracji lub do zalogowania się.

Informacja
Użytkownicy z rangą Gość nie mogą dodawać komentarzy.