Menu

Download

Dziś nas odwiedzili:
Archiwum:
Grudzień 2016 (467)
Listopad 2016 (2434)
Październik 2016 (1961)
Wrzesień 2016 (1857)
Sierpień 2016 (2521)
Lipiec 2016 (2605)


Pokaż wszystkie tagi:
Wejścia na Vorek.pl z:
{referer}



NABÓR NA STANOWISKO


MODERATOR        UPLOADER

Autor: levy52
Data: 20 Luty 2013
Kategoria: FILMY » Lektor
0


Ted *2012* [DVDRip.XviD] [Lektor PL]


Ted *2012* [DVDRip.XviD] [Lektor PL]

czas trwania: 1 godz. 46 min.
gatunek: Fantasy, Komedia
premiera: 7 września 2012 (Polska) 29 czerwca 2012 (świat)
produkcja: USA
reżyseria: Seth MacFarlane
scenariusz: Seth MacFarlane, Alec Sulkin

Opis:

Film opowiada historię 33-letniego mężczyzny. Pewnego dnia jego pluszowy
przyjaciel z dzieciństwa ożywa. Miś nie okazuję się mimo wszystko przykładowym
towarzyszem młodych lat. Do gustu przypadają mu dziewczyny, narkotyki, gry wideo
i inne nieprzyzwoite rzeczy.

Obsada:

Mark Wahlberg - John Bennett
Mila Kunis - Lori Collins
Seth MacFarlane - Ted
Joel McHale - Rex

Dane techniczne:

Format : AVI
Format/Info : Audio Video Interleave
File size : 692 MiB
Duration : 1h 41mn
Overall bit rate : 958 Kbps
Movie name : Ted.2012.MULTiSUBS.PAL.DVD9.DVDSEED-Gogeta.Title14.DVDRip
Writing application : VirtualDubMod 1.5.10.2 (build 2542/release)
Writing library : VirtualDubMod build 2542/release
Original source form/Name : Ted.2012.MULTiSUBS.PAL.DVD9.DVDSEED-Gogeta

Video
ID : 0
Format : MPEG-4 Visual
Format profile : [email protected]
Format settings, BVOP : No
Format settings, QPel : No
Format settings, GMC : No warppoints
Format settings, Matrix : Default (H.263)
Codec ID : XVID
Codec ID/Hint : XviD
Duration : 1h 41mn
Bit rate : 820 Kbps
Width : 640 pixels
Height : 344 pixels
Display aspect ratio : 1.860
Frame rate : 25.000 fps
Color space : YUV
Chroma subsampling : 4:2:0
Bit depth : 8 bits
Scan type : Progressive
Compression mode : Lossy
Bits/(Pixel*Frame) : 0.149
Stream size : 593 MiB (86%)
Writing library : XviD 1.2.1 (UTC 2008-12-04)

Audio
ID : 1
Format : MPEG Audio
Format version : Version 1
Format profile : Layer 3
Mode : Joint stereo
Codec ID : 55
Codec ID/Hint : MP3
Duration : 1h 41mn
Bit rate mode : Constant
Bit rate : 128 Kbps
Channel(s) : 2 channels
Sampling rate : 48.0 KHz
Compression mode : Lossy
Stream size : 92.5 MiB (13%)
Alignment : Split accross interleaves
Interleave, duration : 40 ms (1.00 video frame)
Interleave, preload duration : 500 ms
Writing library : LAME3.98.2




Aby zobaczyć ukryty tekst musisz być zalogowany, jeżeli nie masz konta zarejestruj się!




Podziel się !

Delicious'da Share  Share on Facebook  Friendfeed Share  Google Shared  StubmleUpon'da Share  Digg'de Share  Netvibes'de Share  Reddit'de Share RSS Feeds Subscribe!

Powrót
Przeglądasz witrynę jako gość.
Dlatego zachęcamy do rejestracji lub do zalogowania się.

Informacja
Użytkownicy z rangą Gość nie mogą dodawać komentarzy.