Menu

Download

Dziś nas odwiedzili:
Archiwum:
Grudzień 2016 (613)
Listopad 2016 (2434)
Październik 2016 (1961)
Wrzesień 2016 (1857)
Sierpień 2016 (2521)
Lipiec 2016 (2605)


Pokaż wszystkie tagi:
Wejścia na Vorek.pl z:
{referer}



NABÓR NA STANOWISKO


MODERATOR        UPLOADER

Autor: aicid
Data: 19 Luty 2013
Kategoria: FILMY » Lektor
0


Obcy Paczka - Alien Pack 1979-1997 [DVDRip.XviD.AC3-TnT] [Lektor PL]

Obcy Paczka - Alien Pack 1979-1997 [DVDRip.XviD.AC3-TnT] [Lektor PL]



Zrzuty ekranu z filmów:
Obcy Paczka - Alien Pack 1979-1997 [DVDRip.XviD.AC3-TnT] [Lektor PL]
Obcy Paczka - Alien Pack 1979-1997 [DVDRip.XviD.AC3-TnT] [Lektor PL]
http://img17.imagetwist.com/th/03049/xoaxhsm46vh4.jpg
http://img17.imagetwist.com/th/03049/fnwc9xw55orj.jpg
http://img17.imagetwist.com/th/03049/sxvotzfkd4nd.jpg
http://img17.imagetwist.com/th/03049/40dandjm8szs.jpg
http://img17.imagetwist.com/th/03049/fpqj56qwkf00.jpg
http://img17.imagetwist.com/th/03049/c7dyk9ehhhtk.jpg



Alien I *1979* [2CD] [DVDRip.XviD-TnT] [Lektor PL]

Produkcja: USA, Wielka Brytania
Gatunek: Horror, Sci-Fi
Premiera: 25.05.1979 [Świat]
Reżyseria: Ridley Scott
Scenariusz: Dan O'Bannon

OPIS:
Kosmos. Odległy wszechświat. Grupa siedmiu członków załogi przebywa w stanie hibernacji. Ich sen przerywa sygnał S.O.S nadawany z planety LV-240. Kapitan Dallas, dowódca statku, zarządza zejście na niezbadaną planetę w ramach akcji ratunkowej. Jeden z członków załogi, niejaki Kane, zostaje zaatakowany przez nieznane stworzenie, który rzuca mu się na twarz i zaciska wokół szyi. Załoga zabiera Kane'a na pokład. Od tej chwili ich podróż przeradza się koszmar. Sygnał S.O.S nadawany z nieznanej planety okazuje się ostrzeżeniem, lecz już za późno... Załoga otrzymuje nowego, niechcianego pasażera, ósmego pasażera "Nostromo".

OBSADA:
Sigourney Weaver ... Ripley
Tom Skerritt ... Dallas
Ian Holm ... Ash
John Hurt ... Kane
Harry Dean Stanton ... Brett
Veronica Cartwright ... Lambert
Yaphet Kotto ... Parker
Bolaji Badejo ... Obcy

INFORMACJE O PLIKU:
General
Complete name : X:Alien I 1979 [CD1] [DVDRip.XviD-TnT] [Lektor PL].avi
Format : AVI
Format/Info : Audio Video Interleave
File size : 701 MiB
Duration : 56mn 38s
Overall bit rate : 1 729 Kbps
Writing application : Nandub v1.0rc2
Writing library : Nandub build 1852/release
Video
ID : 0
Format : MPEG-4 Visual
Format profile : [email protected]
Format settings, BVOP : No
Format settings, QPel : No
Format settings, GMC : No warppoints
Format settings, Matrix : Default (H.263)
Codec ID : XVID
Codec ID/Hint : XviD
Duration : 56mn 38s
Bit rate : 1 528 Kbps
Width : 640 pixels
Height : 272 pixels
Display aspect ratio : 2.35:1
Frame rate : 25.000 fps
Color space : YUV
Chroma subsampling : 4:2:0
Bit depth : 8 bits
Scan type : Progressive
Bits/(Pixel*Frame) : 0.351
Stream size : 619 MiB (88%)
Writing library : XviD 0.0.09 (UTC 2003-03-25)
Audio
ID : 1
Format : AC-3
Format/Info : Audio Coding 3
Format profile : Dolby Digital
Mode extension : CM (complete main)
Codec ID : 2000
Duration : 56mn 38s
Bit rate mode : Constant
Bit rate : 192 Kbps
Channel(s) : 2 channels
Channel positions : Front: L R
Sampling rate : 48.0 KHz
Bit depth : 16 bits
Video delay : 1ms
Stream size : 77.8 MiB (11%)
Alignment : Split accross interleaves
Interleave, duration : 40 ms (1.00 video frame)
Interleave, preload duration : 500 ms
General
Complete name : X:Alien I 1979 [CD2] [DVDRip.XviD-TnT] [Lektor PL].avi
Format : AVI
Format/Info : Audio Video Interleave
File size : 699 MiB
Duration : 55mn 12s
Overall bit rate : 1 771 Kbps
Writing application : Nandub v1.0rc2
Writing library : Nandub build 1852/release
Video
ID : 0
Format : MPEG-4 Visual
Format profile : [email protected]
Format settings, BVOP : No
Format settings, QPel : No
Format settings, GMC : No warppoints
Format settings, Matrix : Default (H.263)
Codec ID : XVID
Codec ID/Hint : XviD
Duration : 55mn 12s
Bit rate : 1 570 Kbps
Width : 640 pixels
Height : 272 pixels
Display aspect ratio : 2.35:1
Frame rate : 25.000 fps
Color space : YUV
Chroma subsampling : 4:2:0
Bit depth : 8 bits
Scan type : Progressive
Bits/(Pixel*Frame) : 0.361
Stream size : 620 MiB (89%)
Writing library : XviD 0.0.09 (UTC 2003-03-25)
Audio
ID : 1
Format : AC-3
Format/Info : Audio Coding 3
Format profile : Dolby Digital
Mode extension : CM (complete main)
Codec ID : 2000
Duration : 55mn 12s
Bit rate mode : Constant
Bit rate : 192 Kbps
Channel(s) : 2 channels
Channel positions : Front: L R
Sampling rate : 48.0 KHz
Bit depth : 16 bits
Video delay : 1ms
Stream size : 75.8 MiB (11%)
Alignment : Split accross interleaves
Interleave, duration : 40 ms (1.00 video frame)
Interleave, preload duration : 500 ms


EGOFILES:
Aby zobaczyć ukryty tekst musisz być zalogowany, jeżeli nie masz konta zarejestruj się!

CATSHARE:
Aby zobaczyć ukryty tekst musisz być zalogowany, jeżeli nie masz konta zarejestruj się!

HELLSHARE:
Aby zobaczyć ukryty tekst musisz być zalogowany, jeżeli nie masz konta zarejestruj się!


Alien II *1986* [CD2] [DVDRip.XviD-TnT] [Lektor PL]

Produkcja: USA, Wielka Brytania
Gatunek: Horror, Sci-Fi
Premiera: 18.07.1986 [Świat]
Reżyseria: James Cameron
Scenariusz: James Cameron

OPIS:
Po 57 latach dryfowania w przestrzeni kosmicznej oficer Ellen Ripley zostaje odnaleziona. Na stacji kosmicznej dowiaduje się, że "firma" wysłała dużą grupę kolonistów na planetę, z której załoga Nostromo wniosła na pokład obcego. Przerażona próbuje interweniować, jednak bez skutku. Nikt jej nie wierzy, zaś jej przeżycia są uznawane za wymysły. Kiedy wydaje się, że wszystko wraca do normy z bazy osadników przestają nadchodzić wiadomości. Oficer Ellen Ripley wyrusza wraz z oddziałem komandosów i pracownikiem "firmy" na planetę. Jednak horror, który tam zastaną, nie śnił im się w najgorszych koszmarach....

OBSADA:
Sigourney Weaver ... Ellen Ripley
Michael Biehn ... Kapral Dwayne Hicks
Paul Reiser ... Carter J. Burke
Lance Henriksen ... L. Bishop
Carrie Henn ... Rebecca "Newt" Jorden
Bill Paxton ... Szeregowiec W. Hudson
William Hope ... Porucznik S. Gorman
Ricco Ross ... Szeregowiec R. Frost

INFORMACJE O PLIKU:
General
Complete name : X:Alien II 1986 [CD1] [DVDRip.XviD-TnT] [Lektor PL].avi
Format : AVI
Format/Info : Audio Video Interleave
File size : 701 MiB
Duration : 1h 4mn
Overall bit rate : 1 521 Kbps
Writing application : Nandub v1.0rc2
Writing library : Nandub build 1852/release
Video
ID : 0
Format : MPEG-4 Visual
Format profile : [email protected]
Format settings, BVOP : No
Format settings, QPel : No
Format settings, GMC : No warppoints
Format settings, Matrix : Default (H.263)
Codec ID : XVID
Codec ID/Hint : XviD
Duration : 1h 4mn
Bit rate : 1 319 Kbps
Width : 640 pixels
Height : 352 pixels
Display aspect ratio : 16:9
Frame rate : 25.000 fps
Color space : YUV
Chroma subsampling : 4:2:0
Bit depth : 8 bits
Scan type : Progressive
Bits/(Pixel*Frame) : 0.234
Stream size : 608 MiB (87%)
Writing library : XviD 0.0.09 (UTC 2003-03-25)
Audio
ID : 1
Format : AC-3
Format/Info : Audio Coding 3
Format profile : Dolby Digital
Mode extension : CM (complete main)
Codec ID : 2000
Duration : 1h 4mn
Bit rate mode : Constant
Bit rate : 192 Kbps
Channel(s) : 2 channels
Channel positions : Front: L R
Sampling rate : 48.0 KHz
Bit depth : 16 bits
Video delay : 9ms
Stream size : 88.4 MiB (13%)
Alignment : Split accross interleaves
Interleave, duration : 40 ms (1.00 video frame)
Interleave, preload duration : 500 ms
General
Complete name : X:Alien II 1986 [CD2] [DVDRip.XviD-TnT] [Lektor PL].avi
Format : AVI
Format/Info : Audio Video Interleave
File size : 700 MiB
Duration : 1h 7mn
Overall bit rate : 1 456 Kbps
Writing application : Nandub v1.0rc2
Writing library : Nandub build 1852/release
Video
ID : 0
Format : MPEG-4 Visual
Format profile : [email protected]
Format settings, BVOP : No
Format settings, QPel : No
Format settings, GMC : No warppoints
Format settings, Matrix : Default (H.263)
Codec ID : XVID
Codec ID/Hint : XviD
Duration : 1h 7mn
Bit rate : 1 254 Kbps
Width : 640 pixels
Height : 352 pixels
Display aspect ratio : 16:9
Frame rate : 25.000 fps
Color space : YUV
Chroma subsampling : 4:2:0
Bit depth : 8 bits
Scan type : Progressive
Bits/(Pixel*Frame) : 0.223
Stream size : 603 MiB (86%)
Writing library : XviD 0.0.09 (UTC 2003-03-25)
Audio
ID : 1
Format : AC-3
Format/Info : Audio Coding 3
Format profile : Dolby Digital
Mode extension : CM (complete main)
Codec ID : 2000
Duration : 1h 7mn
Bit rate mode : Constant
Bit rate : 192 Kbps
Channel(s) : 2 channels
Channel positions : Front: L R
Sampling rate : 48.0 KHz
Bit depth : 16 bits
Video delay : 9ms
Stream size : 92.3 MiB (13%)
Alignment : Split accross interleaves
Interleave, duration : 40 ms (1.00 video frame)
Interleave, preload duration : 500 ms


EGOFILES:
Aby zobaczyć ukryty tekst musisz być zalogowany, jeżeli nie masz konta zarejestruj się!

CATSHARE:
Aby zobaczyć ukryty tekst musisz być zalogowany, jeżeli nie masz konta zarejestruj się!

HELLSHARE:
Aby zobaczyć ukryty tekst musisz być zalogowany, jeżeli nie masz konta zarejestruj się!


Alien III *1992* [CD2] [DVDRip.XviD-TnT] [Lektor PL]

Produkcja: USA
Gatunek: Horror, Sci-Fi
Premiera: 22.05.1992 [Świat]
Reżyseria: David Fincher
Scenariusz: Larry Ferguson, Walter Hill, David Giler

OPIS:
Fiorina 161, zakażona przez wszy planeta, na której znajduje się więzienie pod zaostrzonym rygorem dla najgorszych złoczyńców. W tą zdominowaną przez mężczyzn komunę wkracza por. Ripley, a wraz z nią nieprzyjazny gość. Kolejny raz Ripley staje naprzeciw śmiertelnemu wrogowi, ale tym razem pozbawiona wszelkich zdobyczy techniki czy jakakolwiek broni, uzbrojona jedynie w umysł.

OBSADA:
Sigourney Weaver ... Ellen Ripley
Charles S. Dutton ... Dillon
Charles Dance ... Clemens
Paul McGann ... Golic
Danny Webb ... Morse
Lance Henriksen ... Bishop II | Charles Bishop Weyland
Pete Postlethwaite ... David
Ralph Brown ... Aaron

INFORMACJE O PLIKU:
General
Complete name : X:Alien III 1992 [CD1] [DVDRip.XviD-TnT] [Lektor PL].avi
Format : AVI
Format/Info : Audio Video Interleave
File size : 698 MiB
Duration : 1h 11mn
Overall bit rate : 1 368 Kbps
Writing application : VirtualDubMod 1.6.0.0 SURROUND (build 2560/release)
Writing library : VirtualDubMod build 2560/release
Video
ID : 0
Format : MPEG-4 Visual
Format profile : Advanced [email protected]
Format settings, BVOP : Yes
Format settings, QPel : No
Format settings, GMC : No warppoints
Format settings, Matrix : Default (MPEG)
Muxing mode : Packed bitstream
Codec ID : XVID
Codec ID/Hint : XviD
Duration : 1h 11mn
Bit rate : 1 103 Kbps
Width : 640 pixels
Height : 272 pixels
Display aspect ratio : 2.35:1
Frame rate : 23.976 fps
Color space : YUV
Chroma subsampling : 4:2:0
Bit depth : 8 bits
Scan type : Progressive
Bits/(Pixel*Frame) : 0.264
Stream size : 562 MiB (81%)
Writing library : XviD 1.2.0.dev47 (UTC 2006-11-01)
Audio
ID : 1
Format : AC-3
Format/Info : Audio Coding 3
Mode extension : CM (complete main)
Codec ID : 2000
Duration : 1h 11mn
Bit rate mode : Constant
Bit rate : 256 Kbps
Channel(s) : 6 channels
Channel positions : Front: L C R, Side: L R, LFE
Sampling rate : 48.0 KHz
Bit depth : 16 bits
Stream size : 131 MiB (19%)
Alignment : Split accross interleaves
Interleave, duration : 42 ms (1.00 video frame)
Interleave, preload duration : 500 ms
General
Complete name : X:Alien III 1992 [CD2] [DVDRip.XviD-TnT] [Lektor PL].avi
Format : AVI
Format/Info : Audio Video Interleave
File size : 700 MiB
Duration : 1h 13mn
Overall bit rate : 1 331 Kbps
Writing application : VirtualDubMod 1.6.0.0 SURROUND (build 2560/release)
Writing library : VirtualDubMod build 2560/release
Video
ID : 0
Format : MPEG-4 Visual
Format profile : Advanced [email protected]
Format settings, BVOP : Yes
Format settings, QPel : No
Format settings, GMC : No warppoints
Format settings, Matrix : Default (MPEG)
Muxing mode : Packed bitstream
Codec ID : XVID
Codec ID/Hint : XviD
Duration : 1h 13mn
Bit rate : 1 065 Kbps
Width : 640 pixels
Height : 272 pixels
Display aspect ratio : 2.35:1
Frame rate : 23.976 fps
Color space : YUV
Chroma subsampling : 4:2:0
Bit depth : 8 bits
Scan type : Progressive
Bits/(Pixel*Frame) : 0.255
Stream size : 560 MiB (80%)
Writing library : XviD 1.2.0.dev47 (UTC 2006-11-01)
Audio
ID : 1
Format : AC-3
Format/Info : Audio Coding 3
Mode extension : CM (complete main)
Codec ID : 2000
Duration : 1h 13mn
Bit rate mode : Constant
Bit rate : 256 Kbps
Channel(s) : 6 channels
Channel positions : Front: L C R, Side: L R, LFE
Sampling rate : 48.0 KHz
Bit depth : 16 bits
Stream size : 135 MiB (19%)
Alignment : Split accross interleaves
Interleave, duration : 42 ms (1.00 video frame)
Interleave, preload duration : 500 ms


EGOFILES:
Aby zobaczyć ukryty tekst musisz być zalogowany, jeżeli nie masz konta zarejestruj się!

CATSHARE:
Aby zobaczyć ukryty tekst musisz być zalogowany, jeżeli nie masz konta zarejestruj się!

HELLSHARE:
Aby zobaczyć ukryty tekst musisz być zalogowany, jeżeli nie masz konta zarejestruj się!


Alien IV Resurrection *1997* [CD1] [DVDRip.XviD-TnT] [Lektor PL]

Produkcja: USA
Gatunek: Horror, Sci-Fi
Premiera: 06.11.1997 [Świat]
Reżyseria: Jean-Pierre Jeunet
Scenariusz: Joss Whedon

OPIS:
Jest to już czwarty film z tej serii. Akcja toczy się na stacji kosmicznej Aurgia w dwieście lat po wydarzeniach przedstawionych w "Obcym 3". Grupa naukowców dokonuje eksperymentu i klonuje Ellen Ripley (Sigourney Weaver) wraz z przerażającym płodem w jej łonie.Tymczasem na stację przylatuje statek z zahibernowanymi na pokładzie ludźmi, których naukowcy z Aurgi wykorzystują jako nosicieli zarodków "obcych". Nikt nie zdaje sobie sprawy, co dzieje się w laboratoriach. W wyniku zamieszania eksperyment wymyka się spod kontroli, a "obcy" mnożący się z zastraszającą szybkością dziesiątkują załogę. Pozostali przy życiu mają bardzo mało czasu, by zapobiec katastrofie, zwłaszcza, że Aurgia kierowana jest autopilotem w stronę Ziemi. Jedyną osobą, która może znaleźć wyjście z sytuacji jest Ripley (Sigourney Weaver). Nikt tak jak ona nie rozumie "obcych", zwłaszcza, że w wyniku klonowania nabyła ich cechy.

OBSADA:
Sigourney Weaver ... Ellen Ripley
Winona Ryder ... Annalee Call
Dominique Pinon ... Vriess
Ron Perlman ... Johner
Gary Dourdan ... Christie
Michael Wincott ... Frank Elgyn
Kim Flowers ... Sabra Hillard
Dan Hedaya ... Generał Martin Perez

INFORMACJE O PLIKU:
General
Complete name : X:Alien IV Resurrection 1997 [CD1] [DVDRip.XviD-TnT] [Lektor PL].avi
Format : AVI
Format/Info : Audio Video Interleave
File size : 699 MiB
Duration : 54mn 6s
Overall bit rate : 1 805 Kbps
Writing application : VirtualDubMod 1.6.0.0 SURROUND (build 2560/release)
Writing library : VirtualDubMod build 2560/release
Video
ID : 0
Format : MPEG-4 Visual
Format profile : Advanced [email protected]
Format settings, BVOP : Yes
Format settings, QPel : No
Format settings, GMC : No warppoints
Format settings, Matrix : Default (MPEG)
Muxing mode : Packed bitstream
Codec ID : XVID
Codec ID/Hint : XviD
Duration : 54mn 6s
Bit rate : 1 539 Kbps
Width : 640 pixels
Height : 272 pixels
Display aspect ratio : 2.35:1
Frame rate : 23.976 fps
Color space : YUV
Chroma subsampling : 4:2:0
Bit depth : 8 bits
Scan type : Progressive
Bits/(Pixel*Frame) : 0.369
Stream size : 596 MiB (85%)
Writing library : XviD 1.2.0.dev47 (UTC 2006-11-01)
Audio
ID : 1
Format : AC-3
Format/Info : Audio Coding 3
Mode extension : CM (complete main)
Codec ID : 2000
Duration : 54mn 6s
Bit rate mode : Constant
Bit rate : 256 Kbps
Channel(s) : 6 channels
Channel positions : Front: L C R, Side: L R, LFE
Sampling rate : 48.0 KHz
Bit depth : 16 bits
Stream size : 99.1 MiB (14%)
Alignment : Split accross interleaves
Interleave, duration : 42 ms (1.00 video frame)
Interleave, preload duration : 500 ms
General
Complete name : X:Alien IV Resurrection 1997 [CD2] [DVDRip.XviD-TnT] [Lektor PL].avi
Format : AVI
Format/Info : Audio Video Interleave
File size : 700 MiB
Duration : 1h 1mn
Overall bit rate : 1 579 Kbps
Writing application : VirtualDubMod 1.6.0.0 SURROUND (build 2560/release)
Writing library : VirtualDubMod build 2560/release
Video
ID : 0
Format : MPEG-4 Visual
Format profile : Advanced [email protected]
Format settings, BVOP : Yes
Format settings, QPel : No
Format settings, GMC : No warppoints
Format settings, Matrix : Default (MPEG)
Muxing mode : Packed bitstream
Codec ID : XVID
Codec ID/Hint : XviD
Duration : 1h 1mn
Bit rate : 1 314 Kbps
Width : 640 pixels
Height : 272 pixels
Display aspect ratio : 2.35:1
Frame rate : 23.976 fps
Color space : YUV
Chroma subsampling : 4:2:0
Bit depth : 8 bits
Scan type : Progressive
Bits/(Pixel*Frame) : 0.315
Stream size : 582 MiB (83%)
Writing library : XviD 1.2.0.dev47 (UTC 2006-11-01)
Audio
ID : 1
Format : AC-3
Format/Info : Audio Coding 3
Mode extension : CM (complete main)
Codec ID : 2000
Duration : 1h 1mn
Bit rate mode : Constant
Bit rate : 256 Kbps
Channel(s) : 6 channels
Channel positions : Front: L C R, Side: L R, LFE
Sampling rate : 48.0 KHz
Bit depth : 16 bits
Stream size : 113 MiB (16%)
Alignment : Split accross interleaves
Interleave, duration : 42 ms (1.00 video frame)
Interleave, preload duration : 500 ms


EGOFILES:
Aby zobaczyć ukryty tekst musisz być zalogowany, jeżeli nie masz konta zarejestruj się!

CATSHARE:
Aby zobaczyć ukryty tekst musisz być zalogowany, jeżeli nie masz konta zarejestruj się!

HELLSHARE:
Aby zobaczyć ukryty tekst musisz być zalogowany, jeżeli nie masz konta zarejestruj się!



WSZYSTKIE LINKI:

EGOFILES:
Aby zobaczyć ukryty tekst musisz być zalogowany, jeżeli nie masz konta zarejestruj się!

CATSHARE:
Aby zobaczyć ukryty tekst musisz być zalogowany, jeżeli nie masz konta zarejestruj się!

HELLSHARE:
Aby zobaczyć ukryty tekst musisz być zalogowany, jeżeli nie masz konta zarejestruj się!



Podziel się !

Delicious'da Share  Share on Facebook  Friendfeed Share  Google Shared  StubmleUpon'da Share  Digg'de Share  Netvibes'de Share  Reddit'de Share RSS Feeds Subscribe!

Powrót
Przeglądasz witrynę jako gość.
Dlatego zachęcamy do rejestracji lub do zalogowania się.

Informacja
Użytkownicy z rangą Gość nie mogą dodawać komentarzy.