Menu

Download

Dziś nas odwiedzili:
Archiwum:
Grudzień 2016 (846)
Listopad 2016 (2433)
Październik 2016 (1961)
Wrzesień 2016 (1857)
Sierpień 2016 (2521)
Lipiec 2016 (2605)


Pokaż wszystkie tagi:
Wejścia na Vorek.pl z:
{referer}



NABÓR NA STANOWISKO


MODERATOR        UPLOADER

Autor: aicid
Data: 11 Luty 2013
Kategoria: FILMY » Lektor
0


Kruk Zagadka Zbrodni - The Raven 2012 [BDRip] [XviD] [Lektor PL]

Produkcja: Hiszpania, USA, Węgry
Gatunek: Horror, Kryminał
Premiera: 9 marca 2012 (Świat)
Reżyseria: James McTeigue
Scenariusz: Hannah Shakespeare, Ben Livingston
Zdjęcia: Danny Ruhlmann
Muzyka: Lucas Vidal
Czas trwania: 1h 51 min.
Język: angielski, polski
Napisy: łotwewski, litewski, estoński
Ocena = 6.8/10 - dobry (6378 głosów)

Edgar Allan Poe łączy siły z detektywem z Baltimore w celu ujęcia szalonego mordercy, który używa utworów Edgara jako podstawy do brutalnych zabójstw. Kiedy znaleziono zwłoki matki i córki, detektyw Emmett Fields dochodzi do wstrząsającego odkrycia. Morderstwo bowiem przypomina to, które opisał Poe w jednym ze swoich utworów.

Kruk Zagadka Zbrodni - The Raven 2012 [BDRip] [XviD] [Lektor PL]Kruk Zagadka Zbrodni - The Raven 2012 [BDRip] [XviD] [Lektor PL]

OBSADA:
John Cusack - Edgar Allan Poe
Luke Evans - Emmett Fields, detektyw
Alice Eve - Emily
Brendan Gleeson ... Kpt. Hamilton
Kevin McNally - Maddux
Oliver Jackson-Cohen - John Cantrell
Jimmy Yuill - Kpt. Eldridge
Sam Hazeldine - Ivan

DANE TECHNICZNE:

Format : AVI
Format/Info : Audio Video Interleave
File size : 694 MiB
Duration : 1h 46mn
Overall bit rate : 914 Kbps
Writing application : VirtualDubMod 1.5.10.2 (build 2540/release)
Writing library : VirtualDub build 32817/release

Video
ID : 0
Format : MPEG-4 Visual
Format profile : Advanced [email protected]
Format settings, BVOP : 2
Format settings, QPel : No
Format settings, GMC : No warppoints
Format settings, Matrix : Default (H.263)
Codec ID : XVID
Codec ID/Hint : XviD
Duration : 1h 46mn
Bit rate : 776 Kbps
Width : 640 pixels
Height : 272 pixels
Display aspect ratio : 2.35:1
Frame rate : 25.000 fps
Original frame rate : 23.976 fps
Color space : YUV
Chroma subsampling : 4:2:0
Bit depth : 8 bits
Scan type : Progressive
Compression mode : Lossy
Bits/(Pixel*Frame) : 0.178
Stream size : 589 MiB (85%)
Writing library : XviD 64

Audio
ID : 1
Format : MPEG Audio
Codec ID : 55
Codec ID/Hint : MP3
Duration : 1h 46mn
Bit rate : 128 Kbps
Channel(s) : 2 channels
Sampling rate : 48.0 KHz
Compression mode : Lossy
Stream size : 97.2 MiB (14%)
Alignment : Split accross interleaves
Interleave, duration : 40 ms (1.00 video frame)
Interleave, preload duration : 500 ms

EGOFILES:
Aby zobaczyć ukryty tekst musisz być zalogowany, jeżeli nie masz konta zarejestruj się!

CATSHARE:
Aby zobaczyć ukryty tekst musisz być zalogowany, jeżeli nie masz konta zarejestruj się!

HELLSHARE:
Aby zobaczyć ukryty tekst musisz być zalogowany, jeżeli nie masz konta zarejestruj się!



Podziel się !

Delicious'da Share  Share on Facebook  Friendfeed Share  Google Shared  StubmleUpon'da Share  Digg'de Share  Netvibes'de Share  Reddit'de Share RSS Feeds Subscribe!

Powrót
Przeglądasz witrynę jako gość.
Dlatego zachęcamy do rejestracji lub do zalogowania się.

Informacja
Użytkownicy z rangą Gość nie mogą dodawać komentarzy.