Menu

Download

Dziś nas odwiedzili:
Archiwum:
Grudzień 2016 (700)
Listopad 2016 (2434)
Październik 2016 (1961)
Wrzesień 2016 (1857)
Sierpień 2016 (2521)
Lipiec 2016 (2605)


Pokaż wszystkie tagi:
Wejścia na Vorek.pl z:
{referer}



NABÓR NA STANOWISKO


MODERATOR        UPLOADER

Autor: aicid
Data: 11 Luty 2013
Kategoria: FILMY » Lektor
0


Randki na zlecenie - Beauty & the Briefcase 2010 [DVDRip] [XviD] [Lektor PL]

rodukcja: USA
premiera: 18 kwietnia 2010 (świat)
reżyseria: Gil Junger
scenariusz: Michael Horowitz
czas trwania: 1 godz. 26 min.
gatunek: Komedia rom.

Opis:

Lane (Hilary Duff) jest piękną i niezależną dziennikarką, szukającą swojego idealnego, cudownego mężczyzny, który oczywiście spełnia wszystkie jej kryteria. Chcąc zdobyć upragnioną pracę w magazynie Cosmopolitan, Lane zdobywa pracę w przedsiębiorstwie finansowym, gdzie młodzi i przystojni single są na wyciągnięcie ręki. Ambitna dziennikarka musi napisać artykuł "Jak znaleźć miłość w pracy", umawia się więc na randki z kilkoma pracownikami z firmy, jednak w międzyczasie poznaje Liama

Randki na zlecenie - Beauty & the Briefcase 2010 [DVDRip] [XviD] [Lektor PL]Randki na zlecenie - Beauty & the Briefcase 2010 [DVDRip] [XviD] [Lektor PL]

Obsada:

Jaime Pressly...Wydawca
Matt Dallas...Seth
Chris Carmack...Liam
Michael McMillian...Tom
Patricia French...Redaktor działu Moda
Hilary Duff...Lane Daniels
Lacey Minchew...Whitney
Courtney J. Clark...Margo
Billy Slaughter...Księgowy
Jewel Grosch...Asystentka Kate


Dane techniczne:

Format : AVI
Format/Info : Audio Video Interleave
File size : 694 MiB
Duration : 1h 22mn
Overall bit rate : 1 169 Kbps
Writing application : VirtualDubMod 1.5.10.2 (build 2542/release)
Writing library : VirtualDubMod build 2542/release

Video
ID : 0
Format : MPEG-4 Visual
Format profile : Advanced [email protected]
Format settings, BVOP : 2
Format settings, QPel : No
Format settings, GMC : No warppoints
Format settings, Matrix : Default (H.263)
Muxing mode : Packed bitstream
Codec ID : XVID
Codec ID/Hint : XviD
Duration : 1h 22mn
Bit rate : 1 032 Kbps
Width : 688 pixels
Height : 384 pixels
Display aspect ratio : 16:9
Frame rate : 25.000 fps
Original frame rate : 23.976 fps
Color space : YUV
Chroma subsampling : 4:2:0
Bit depth : 8 bits
Scan type : Progressive
Compression mode : Lossy
Bits/(Pixel*Frame) : 0.156
Stream size : 612 MiB (88%)
Writing library : XviD 1.2.0.dev47 (UTC 2006-11-01)

Audio
ID : 1
Format : MPEG Audio
Format version : Version 1
Format profile : Layer 3
Mode : Joint stereo
Mode extension : MS Stereo
Codec ID : 55
Codec ID/Hint : MP3
Duration : 1h 22mn
Bit rate mode : Constant
Bit rate : 128 Kbps
Channel(s) : 2 channels
Sampling rate : 48.0 KHz
Compression mode : Lossy
Delay relative to video : 984ms
Stream size : 76.0 MiB (11%)
Alignment : Split accross interleaves
Interleave, duration : 40 ms (1.00 video frame)
Interleave, preload duration : 504 ms


EGOFILES:
Aby zobaczyć ukryty tekst musisz być zalogowany, jeżeli nie masz konta zarejestruj się!

CATSHARE:
Aby zobaczyć ukryty tekst musisz być zalogowany, jeżeli nie masz konta zarejestruj się!

HELLSHARE:
Aby zobaczyć ukryty tekst musisz być zalogowany, jeżeli nie masz konta zarejestruj się!



Podziel się !

Delicious'da Share  Share on Facebook  Friendfeed Share  Google Shared  StubmleUpon'da Share  Digg'de Share  Netvibes'de Share  Reddit'de Share RSS Feeds Subscribe!

Powrót
Przeglądasz witrynę jako gość.
Dlatego zachęcamy do rejestracji lub do zalogowania się.

Informacja
Użytkownicy z rangą Gość nie mogą dodawać komentarzy.