Menu

Download

Dziś nas odwiedzili:
Archiwum:
Grudzień 2016 (537)
Listopad 2016 (2434)
Październik 2016 (1961)
Wrzesień 2016 (1857)
Sierpień 2016 (2521)
Lipiec 2016 (2605)


Pokaż wszystkie tagi:
Wejścia na Vorek.pl z:
{referer}



NABÓR NA STANOWISKO


MODERATOR        UPLOADER

Autor: aicid
Data: 6 Luty 2013
Kategoria: FILMY » Lektor
0


Bestia - Beastly 2011 [DVDRip.XviD] [Lektor PL]

Reżyseria: Daniel Barnz
Scenariusz: Daniel Barnz
Premiera: 4 marca 2011 (Świat)
Produkcja: USA
Gatunek: Fantasy, Melodramat
Czas trwania: 86 minut

Opis:

Nowa wersja "Pięknej i Bestii", która dzieje się na współczesnym Manhattanie. Bogaty i pyszny nastolatek na randce potwornie obchodzi się z dziewczyną, zostaje przez to przeklęty i zamieniony w koszmarną kreaturę. Z tej powłoki może się wyrwać jedynie gdy znajdzie prawdziwą miłość. Wtedy właśnie się zako*censored*e w pięknej dziewczynie.

Bestia - Beastly 2011 [DVDRip.XviD] [Lektor PL]Bestia - Beastly 2011 [DVDRip.XviD] [Lektor PL]

Obsada:

Alex Pettyfer - Kyle Kingson
Vanessa Hudgens - Linda Taylor
Mary-Kate Olsen - Kendra Hilferty
Neil Patrick Harris - Will Fratalli
Peter Krause - Rob Kingson
Erik Knudsen - Trey Parker

Dane techniczne:

Format : AVI
Format/Info : Audio Video Interleave
File size : 698 MiB
Duration : 1h 22mn
Overall bit rate : 1 180 Kbps
Writing application : VirtualDubMod 1.5.10.2 (build 2542/release)
Writing library : VirtualDubMod build 2542/release

Video
ID : 0
Format : MPEG-4 Visual
Format profile : Advanced [email protected]
Format settings, BVOP : 1
Format settings, QPel : No
Format settings, GMC : No warppoints
Format settings, Matrix : Default (H.263)
Muxing mode : Packed bitstream
Codec ID : XVID
Codec ID/Hint : XviD
Duration : 1h 22mn
Bit rate : 1 048 Kbps
Width : 640 pixels
Height : 272 pixels
Display aspect ratio : 2.35:1
Frame rate : 25.000 fps
Color space : YUV
Chroma subsampling : 4:2:0
Bit depth : 8 bits
Scan type : Progressive
Compression mode : Lossy
Bits/(Pixel*Frame) : 0.241
Stream size : 620 MiB (89%)
Writing library : XviD 62

Audio
ID : 1
Format : MPEG Audio
Format version : Version 1
Format profile : Layer 3
Mode : Joint stereo
Mode extension : MS Stereo
Codec ID : 55
Codec ID/Hint : MP3
Duration : 1h 19mn
Bit rate mode : Constant
Bit rate : 128 Kbps
Channel(s) : 2 channels
Sampling rate : 48.0 KHz
Compression mode : Lossy
Delay relative to video : 2s 184ms
Stream size : 72.3 MiB (10%)
Alignment : Split accross interleaves
Interleave, duration : 42 ms (1.05 video frame)
Interleave, preload duration : 504 ms

EGOFILES:
Aby zobaczyć ukryty tekst musisz być zalogowany, jeżeli nie masz konta zarejestruj się!

CATSHARE:
Aby zobaczyć ukryty tekst musisz być zalogowany, jeżeli nie masz konta zarejestruj się!

HELLSHARE:
Aby zobaczyć ukryty tekst musisz być zalogowany, jeżeli nie masz konta zarejestruj się!



Podziel się !

Delicious'da Share  Share on Facebook  Friendfeed Share  Google Shared  StubmleUpon'da Share  Digg'de Share  Netvibes'de Share  Reddit'de Share RSS Feeds Subscribe!

Powrót
Przeglądasz witrynę jako gość.
Dlatego zachęcamy do rejestracji lub do zalogowania się.

Informacja
Użytkownicy z rangą Gość nie mogą dodawać komentarzy.