Menu

Download

Dziś nas odwiedzili:
abaabaaba, Kwiatek2009, jedrek00711, keram, eree, misek1, sir daro 24, agary35, zibi19979, gargamel_50, brovarek123, arkadiusz271, draco, carabose, lukasz666666, genium68, dejw, agnuszka, pirek, Prospector00, thomas.1979, jeno10, narkusdwa, figo73, kurosumi, bowe1969, andy08, Ambasadoor70, edmund54, magdajawor1, igi2, mlody2205, yonk, wytaczarz44, tomaszlegion, GunHead, artfrst, pychu007, solgerx, wlodek66, levy52, karbor83, Taktyk91, matey777, Raf.36, amfetaminka, marian1999, mart1nof, kajtek42, areczek971, porwichp, Painkiller212, laewa, ciołek12, tomaszo1948, stanley_pl, biznesmen66, cichyd1, darunia27, Fedor11, miro72, eneasz, geniusloci, marek6408, glut1510, niguel, Bodzio57, darekbus, foch5r, ralf1976, jpwko, ravler89, Mazip007, jurekaw, jerry1013, rumak83, andino, ango, kudek01, wfman, lukasz10051, tadeuszo7, tomek i ania, werona1, drls1989, Optimus22, aga2.05, lucky170, misiu1185, 3366, secundus, FALKON69, papay100, topikos, jcl, priv, lauratcv, grochu777, buruburu, weronis, qczi, waclaw, mariant, baraxx, mondia, mobil199, gasior932, MARIULA500, krepel, weenzer, adam101102, buba48, Sarima, czesiek1964, gbur17, bazumi20, ARTUROSE, Andi-diesel, Krakus51, ryszardos69, mam321, Finder, BoloLVII, akak1, intermilano, adox80, lorak56, rutkowski20, czesie_k, kamelot2012, wotar, Manias01, osa31, aspekt2004, krys49, crownart, Uszka2001, skarabeusz, bylik71, MechoTV, darekgl1968, daro30, Zelwik, tedxvs, splittt, zpcytadela, buku54, drenn1, Kamirllo105, angelo1969, Sypi, ASTERGO, zibim, jupkeennss, spoli, RUFO, serrafus, robaczio9, wojtasg, sznurowski, kat666, jano666, jinks13, Lukas8, pepik11, mariusz242, lipenjusz, chemik638, jusia266, gento, machoney1920, lukaszek17, celin, xard2906, pestka210, Matthew67, Ashigari, andjey, iruss3, Cirrus, alex, EdiMar, aj 1971, Bartekn90, jojogurt, Samuel Buddy, P.P.P., mpawel71, lopez138, Abdul_wisimulacha, Aydamusek, wielgi24, Vanisz, mp3de, slawol666, lepper, rudagemba, Seba1984r, virginiaa, andwnu, WeilandT, jarek861029, Trytonik, EFBOT, jarecki500, Svilesis

Archiwum:
Grudzień 2016 (639)
Listopad 2016 (2434)
Październik 2016 (1961)
Wrzesień 2016 (1857)
Sierpień 2016 (2521)
Lipiec 2016 (2605)


Pokaż wszystkie tagi:
Wejścia na Vorek.pl z:
{referer}



NABÓR NA STANOWISKO


MODERATOR        UPLOADER

Autor: aicid
Data: 5 Luty 2013
Kategoria: FILMY » Lektor
0


Kociak ucieka - Cat Run 2011 [DVDRip.XviD] [Lektor PL]

Produkcja: USA
Gatunek: Komedia, Akcja
Reżyseria: John Stockwell
Scenariusz: Nick Ball, John Niven
Premiera: 1 kwietnia 2011 (Świat)
Czas trwania: 1 godz. 42 min.

Opis:

Catarina, pewna siebie i bardzo atrakcyjna dziewczyna do towarzystwa, prowadzi dostatnie życie dzięki znajomości z wieloma prominentnymi mężczyznami. Pewnego dnia wychodzi na jaw, że kobieta dysponuje dowodami związanymi ze skandalem korupcyjnym na szczytach władzy. Od tej chwili żyje w ciągłym zagrożeniu. Bezlitosna zabójczyni zrobi wszystko, żeby ją uciszyć. Na jej drodze staje dwóch młodych detektywów, którzy mają za zadanie chronić cennego świadka.

Kociak ucieka - Cat Run 2011 [DVDRip.XviD] [Lektor PL]
Kociak ucieka - Cat Run 2011 [DVDRip.XviD] [Lektor PL]

Obsada:

Paz Vega
Christopher McDonald
Scott Mechlowicz
Tony Curran
Michelle Lombardo

Dane techniczne:

Format : AVI
Format/Info : Audio Video Interleave
File size : 699 MiB
Duration : 1h 41mn
Overall bit rate : 961 Kbps
Writing application : VirtualDubMod 1.5.10.2 (build 2540/release)
Writing library : VirtualDubMod build 2540/release

Video
ID : 0
Format : MPEG-4 Visual
Format profile : Advanced [email protected]
Format settings, BVOP : 2
Format settings, QPel : No
Format settings, GMC : No warppoints
Format settings, Matrix : Default (H.263)
Codec ID : XVID
Codec ID/Hint : XviD
Duration : 1h 41mn
Bit rate : 842 Kbps
Width : 640 pixels
Height : 272 pixels
Display aspect ratio : 2.35:1
Frame rate : 25.000 fps
Color space : YUV
Chroma subsampling : 4:2:0
Bit depth : 8 bits
Scan type : Progressive
Compression mode : Lossy
Bits/(Pixel*Frame) : 0.193
Stream size : 612 MiB (88%)
Writing library : XviD 1.2.1 (UTC 2008-12-04)

Audio
ID : 1
Format : MPEG Audio
Codec ID : 55
Codec ID/Hint : MP3
Duration : 1h 39mn
Bit rate : 112 Kbps
Channel(s) : 2 channels
Sampling rate : 48.0 KHz
Compression mode : Lossy
Stream size : 79.9 MiB (11%)
Alignment : Split accross interleaves
Interleave, duration : 41 ms (1.02 video frame)
Interleave, preload duration : 504 ms

EGOFIES:
Aby zobaczyć ukryty tekst musisz być zalogowany, jeżeli nie masz konta zarejestruj się!

CATSHARE:
Aby zobaczyć ukryty tekst musisz być zalogowany, jeżeli nie masz konta zarejestruj się!

HELLSHARE:
Aby zobaczyć ukryty tekst musisz być zalogowany, jeżeli nie masz konta zarejestruj się!



Podziel się !

Delicious'da Share  Share on Facebook  Friendfeed Share  Google Shared  StubmleUpon'da Share  Digg'de Share  Netvibes'de Share  Reddit'de Share RSS Feeds Subscribe!

Powrót
Przeglądasz witrynę jako gość.
Dlatego zachęcamy do rejestracji lub do zalogowania się.

Informacja
Użytkownicy z rangą Gość nie mogą dodawać komentarzy.