Menu

Download

Dziś nas odwiedzili:
Archiwum:
Grudzień 2016 (894)
Listopad 2016 (2433)
Październik 2016 (1961)
Wrzesień 2016 (1857)
Sierpień 2016 (2521)
Lipiec 2016 (2605)


Pokaż wszystkie tagi:
Wejścia na Vorek.pl z:
{referer}



NABÓR NA STANOWISKO


MODERATOR        UPLOADER

Autor: aicid
Data: 1 Luty 2013
Kategoria: FILMY » Lektor
0


Wyznania zakupoholiczki - Confessions of a Shopaholic 2009 [DVDRip.XviD] [Lektor PL]

Produkcja: USA
Gatunek: Komedia, Romans
Data premiery: 13.02.2009 (Polska), 12.02.2009 (Świat)
Reżyseria: P.J. Hogan
Scenariusz: Tracey Jackson, Tim Firth, Kayla Alpert
Czas trwania: 90 min.

Opis:

Rebecca Bloomwood mieszka w szykownym Nowym Jorku. Jest miłą dziewczyną, która przede wszystkim potrafi świetnie robić zakupy - to prawdziwa specjalistka od luksusowych marek, wyprzedaży i niepowtarzalnych okazji, których nie można przegapić. Jej marzeniem jest praca w jednym z czołowych magazynów o modzie. Niestety, nie jest to cel łatwy do osiągnięcia. Otrzymuje jednak inną dziennikarską posadę - w piśmie zajmującym się finansami. Czy potrafiąca błyskawicznie wydać fortunę Becky będzie umiała pisać o oszczędzaniu?

Wyznania zakupoholiczki - Confessions of a Shopaholic 2009 [DVDRip.XviD] [Lektor PL]Wyznania zakupoholiczki - Confessions of a Shopaholic 2009 [DVDRip.XviD] [Lektor PL]

Obsada:

Isla Fisher: Rebecca Bloomwood
Hugh Dancy: Luke Brandon
Krysten Ritter: Suze
Joan Cusack: Jane Bloomwood

Dane techniczne:

Format : AVI
Format/Info : Audio Video Interleave
File size : 703 MiB
Duration : 1h 36mn
Overall bit rate mode : Variable
Overall bit rate : 1 023 Kbps
Writing application : VirtualDubMod 1.5.10.2 (build 2540/release)
Writing library : VirtualDubMod build 2540/release

Video
ID : 0
Format : MPEG-4 Visual
Format profile : Advanced [email protected]
Format settings, BVOP : 2
Format settings, QPel : No
Format settings, GMC : No warppoints
Format settings, Matrix : Default (H.263)
Muxing mode : Packed bitstream
Codec ID : XVID
Codec ID/Hint : XviD
Duration : 1h 36mn
Bit rate : 877 Kbps
Width : 640 pixels
Height : 272 pixels
Display aspect ratio : 2.35:1
Frame rate : 25.000 fps
Color space : YUV
Chroma subsampling : 4:2:0
Bit depth : 8 bits
Scan type : Progressive
Compression mode : Lossy
Bits/(Pixel*Frame) : 0.202
Stream size : 603 MiB (86%)
Writing library : XviD 1.2.1 (UTC 2008-12-04)

Audio
ID : 1
Format : MPEG Audio
Format version : Version 1
Format profile : Layer 3
Mode : Joint stereo
Mode extension : MS Stereo
Codec ID : 55
Codec ID/Hint : MP3
Duration : 1h 36mn
Bit rate mode : Variable
Bit rate : 128 Kbps
Channel(s) : 2 channels
Sampling rate : 48.0 KHz
Compression mode : Lossy
Stream size : 91.1 MiB (13%)
Alignment : Aligned on interleaves
Interleave, duration : 24 ms (0.60 video frame)
Interleave, preload duration : 139 ms
Writing library : LAME3.90.
Encoding settings : -m j -V 4 -q 2 -lowpass 17.6 --abr 128


Aby zobaczyć ukryty tekst musisz być zalogowany, jeżeli nie masz konta zarejestruj się!



Podziel się !

Delicious'da Share  Share on Facebook  Friendfeed Share  Google Shared  StubmleUpon'da Share  Digg'de Share  Netvibes'de Share  Reddit'de Share RSS Feeds Subscribe!

Powrót
Przeglądasz witrynę jako gość.
Dlatego zachęcamy do rejestracji lub do zalogowania się.

Informacja
Użytkownicy z rangą Gość nie mogą dodawać komentarzy.