Menu

Download

Dziś nas odwiedzili:
Archiwum:
Grudzień 2016 (957)
Listopad 2016 (2431)
Październik 2016 (1961)
Wrzesień 2016 (1857)
Sierpień 2016 (2521)
Lipiec 2016 (2605)


Pokaż wszystkie tagi:
Wejścia na Vorek.pl z:
{referer}



NABÓR NA STANOWISKO


MODERATOR        UPLOADER

Autor: aicid
Data: 22 Styczeń 2013
Kategoria: FILMY » Lektor
0


Księga Ocalenia - The Book Of Eli 2010 [BRRip.XviD] [Lektor PL]

Produkcja: USA
Gatunek: Thriller, Sci-Fi, Przygodowy, Horror
Reżyseria: Albert Hughes, Allen Hughes
Scenariusz: Gary Whitta
Premiera.: 29.01.2010 - Polska, 15.01.2010 - Świat
Czas trwania: 109 minut

Opis:

Rok 2044. Postapokaliptyczny krajobraz zniszczonej Ameryki przemierza Eli - samotnik i wolny strzelec. Mężczyzna jest w posiadaniu tajemniczej księgi, w której znajduje się "klucz" i wiedza niezbędna do ocalenia ludzkości. Podczas podróży bohater trafia do małego miasteczka zarządzanego przez burmistrza - tyrana Carnegie . Despota, chcąc przejąć totalną władzę nad ludźmi za wszelką cenę próbuje wejść w posiadanie księgi. Na drodze Eliego staje również niezwykle seksowna dziewczyna o imieniu Solara rozpoczyna się dramatyczna walka o ocalenie ludzkości..

Księga Ocalenia - The Book Of Eli 2010 [BRRip.XviD] [Lektor PL]


Dane techniczne:

Format : AVI
Format/Info : Audio Video Interleave
File size : 1.37 GiB
Duration : 1h 52mn
Overall bit rate : 1 734 Kbps
Writing application : VirtualDubMod 1.5.10.2 (build 2540/release)
Writing library : VirtualDubMod build 2540/release

Video
ID : 0
Format : MPEG-4 Visual
Format profile : Advanced [email protected]
Format settings, BVOP : 2
Format settings, QPel : No
Format settings, GMC : No warppoints
Format settings, Matrix : Default (MPEG)
Muxing mode : Packed bitstream
Codec ID : XVID
Codec ID/Hint : XviD
Duration : 1h 52mn
Bit rate : 1 277 Kbps
Width : 704 pixels
Height : 384 pixels
Display aspect ratio : 16:9
Frame rate : 25.000 fps
Color space : YUV
Chroma subsampling : 4:2:0
Bit depth : 8 bits
Scan type : Progressive
Compression mode : Lossy
Bits/(Pixel*Frame) : 0.189
Stream size : 1.01 GiB (74%)
Writing library : XviD 1.2.1 (UTC 2008-12-04)

Audio
ID : 1
Format : AC-3
Format/Info : Audio Coding 3
Mode extension : CM (complete main)
Codec ID : 2000
Duration : 1h 52mn
Bit rate mode : Constant
Bit rate : 448 Kbps
Channel(s) : 6 channels
Channel positions : Front: L C R, Side: L R, LFE
Sampling rate : 48.0 KHz
Bit depth : 16 bits
Compression mode : Lossy
Stream size : 362 MiB (26%)
Alignment : Split accross interleaves
Interleave, duration : 40 ms (1.00 video frame)
Interleave, preload duration : 500 ms


Aby zobaczyć ukryty tekst musisz być zalogowany, jeżeli nie masz konta zarejestruj się!



Podziel się !

Delicious'da Share  Share on Facebook  Friendfeed Share  Google Shared  StubmleUpon'da Share  Digg'de Share  Netvibes'de Share  Reddit'de Share RSS Feeds Subscribe!

Powrót
Przeglądasz witrynę jako gość.
Dlatego zachęcamy do rejestracji lub do zalogowania się.

Informacja
Użytkownicy z rangą Gość nie mogą dodawać komentarzy.