Menu

Download

Dziś nas odwiedzili:
Prospector00, jacekgmk, laewa, grzes997, ziuta, waawr, jano666, bowe1969, pysiu_m, JurekO, cycek77, Trytonik, figo73, wire666, sir daro 24, skyluk, adam1neo, jeno10, pika01, drenn1, terry258, MarczelM, mwita3, bydgoszcz22, tomek i ania, mamata, wojpro, gex1, pit.7777, sproket1, mardra1, brovarek123, pentor, darekgl1968, jaco013, djlemur, Maciej2161, hellmucik, DeejayMalec, dulo123, MISIU11, tomaszo1948, elwro, lepper, demon190219, symoni2008, lopez76, buruburu, lukasz10051, virginiaa, podol76, lipenjusz, karol2005, Andi-diesel, mondia, Fedor11, zakopne, skalski72, Sebool53, jeak, ango, qczi, Tumek73, lenny79, fox57, swatfirerss, huarez44, dejw, lorak56, bazumi20, sharp_99, Lorenz, piurored123, mirek4321, Bóli123, trybsiu, foch5r, Auto-Lux, bodekk2, kriss86pl, GregorRox, FALKON69, mirunia22, magdajawor1, kiecio, Krakus51, 3366, Grzegorz72, P9N7, skajla, tat4, siwy710, BoloLVII, Sarima, aspekt2004, krepel, keram, akak1, kriszak, andy08, smoksmok31, ulaghost, danix20, slay25, gbur17, rumak83, arkadiusz271, adox80, narkusdwa, JoXs, szukisek, hopasiup, artfrst, ARTUROSE, Manias01, globline, jerry1013, papay100, aga2.05, lauenburg, kaszana27, Feniks101, vermigor, inesimariusz, serrafus, geniusloci, trez, pestka210, waldek77, kudek01, tedxvs, marian1999, konradko77, wojtasg, spoli, Marmur, robaczio9, pipipiotr, mariusz242, pepik11, robin163, gento, cichyd1, coruble, Uszka2001, jusia266, zable, buba48, polska00, biggreg, ryszardos69, sayo300, soko-p, splittt, celin, crownart, muldas, machoney1920, xard2906, angelo1969, Cirrus, zibiguzik, andjey, alex, wotar, EdiMar, topikos, weglownia, Bartekn90, buku54, pitereku, nonez, Vanisz, trixi i mila, jarecki500, aj 1971, skarabeusz, Seba1984r, szturmen, secundus, mp3de, wolfx95, Ashigari, tomex2u, and20, Zelwik, malczyce, matexe, cwiras22, jurekaw, EFBOT, monsun65, Svilesis

Archiwum:
Grudzień 2016 (858)
Listopad 2016 (2433)
Październik 2016 (1961)
Wrzesień 2016 (1857)
Sierpień 2016 (2521)
Lipiec 2016 (2605)


Pokaż wszystkie tagi:
Wejścia na Vorek.pl z:
{referer}



NABÓR NA STANOWISKO


MODERATOR        UPLOADER



Captain America: Pierwsze starcie / Captain America: The First Avenger (2011) BRRiP XviD [Profesjonalny Lektor PL]


Captain America: Pierwsze starcie / Captain America: The First Avenger (2011) BRRiP XviD [Profesjonalny Lektor PL]


Opis:
Kapitan Ameryka /właściwie Steve Rogers/ to pierwsza postać stworzona przez Marvel Comics. Steve przed wojną był studentem sztuki, który w 1940 postanowił zaciągnąć się do wojska. Nie został przyjęty z powodu słabego zdrowia, ale dostał propozycję uczestniczenia w tajnym eksperymencie. Został poddany terapii, która zwiększyła jego inteligencję i siłę. Przemienił się w super bohatera nazwanego Kapitan Ameryka. Zostaje wysłany do walki z nazistami, jego największym wrogiem jest Red Skull.



Mój upload:
Dane Techniczne:
General
Complete name                            : Captain.America.The.First.Avenger.2011.PL.BRRip.Xvid-KNK.avi
Format                                   : AVI
Format/Info                              : Audio Video Interleave
File size                                : [B]832[/B] MiB
Duration                                 : 1h 55mn
Overall bit rate mode                    : Variable
Overall bit rate                         : 1 011 Kbps
Writing application                      : VirtualDubMod 1.5.10.2 (build 2540/release)
Writing library                          : VirtualDubMod build 2540/release

Video
ID                                       : 0
Format                                   : MPEG-4 Visual
Format profile                           : Advanced [email protected]
Format settings, BVOP                    : 1
Format settings, QPel                    : No
Format settings, GMC                     : No warppoints
Format settings, Matrix                  : Default (H.263)
Muxing mode                              : Packed bitstream
Codec ID                                 : XVID
Codec ID/Hint                            : XviD
Duration                                 : 1h 55mn
Bit rate                                 : 871 Kbps
Width                                    : 656 pixels
Height                                   : 280 pixels
Display aspect ratio                     : 2.35:1
Frame rate                               : 23.976 fps
Color space                              : YUV
Chroma subsampling                       : 4:2:0
Bit depth                                : 8 bits
Scan type                                : Progressive
Compression mode                         : Lossy
Bits/(Pixel*Frame)                       : 0.198
Stream size                              : 717 MiB (86%)
Writing library                          : XviD 1.2.1 (UTC 2008-12-04)

Audio
ID                                       : 1
Format                                   : MPEG Audio
Format version                           : Version 1
Format profile                           : Layer 3
Mode                                     : Joint stereo
Mode extension                           : MS Stereo
Codec ID                                 : 55
Codec ID/Hint                            : MP3
Duration                                 : 1h 55mn
Bit rate mode                            : Variable
Bit rate                                 : 128 Kbps
Channel(s)                               : 2 channels
Sampling rate                            : 48.0 KHz
Compression mode                         : Lossy
Stream size                              : 105 MiB (13%)
Alignment                                : Aligned on interleaves
Interleave, duration                     : 24 ms (0.58 video frame)
Interleave, preload duration             : 151 ms
Writing library                          : LAME3.92
Encoding settings                        : -m j -V 4 -q 2 -lowpass 17.5 --abr 128




Download:
Pojedyncze Linki! | Nie pakowane - Pobierasz i Oglądasz!


TurboBit:

Aby zobaczyć ukryty tekst musisz być zalogowany, jeżeli nie masz konta zarejestruj się!



Hasło
Brak



Podziel się !

Delicious'da Share  Share on Facebook  Friendfeed Share  Google Shared  StubmleUpon'da Share  Digg'de Share  Netvibes'de Share  Reddit'de Share RSS Feeds Subscribe!

Powrót
Przeglądasz witrynę jako gość.
Dlatego zachęcamy do rejestracji lub do zalogowania się.

Informacja
Użytkownicy z rangą Gość nie mogą dodawać komentarzy.