Menu

Download

Dziś nas odwiedzili:
trigall, pysiu_m, radek1980, kudek01, bowe1969, Krakus51, wytaczarz44, yonk, dumdum23, rumak83, mara46, maniek2203, lonej1, worlok11, amfa07, weglownia, jano666, Painkiller212, Marmur, pirek, adam1neo, Liar, kamyk70, tobi180, ralf1976, lukaszek17, Optimus22, bunio238, jedyna123, janusz26, Ebola Here, and20, weronis, MARIULA500, dejw, waclaw, golden2, koczkodan, kuras, sznurowski, tomek i ania, lorak56, szefiii, terry258, cycek77, akak1, Uszka2001, pawmot, Taktyk91, janek1888, dulo123, darekgl1968, foch5r, areczek971, papay100, pychu007, zynio, BoloLVII, Krzysztof1973, jasiufasola, czesie_k, lauratcv, tadeuszo7, djlemur, pentor, ciołek12, krzysiek850307, matey777, tomaszo1948, GunHead, skarabeusz, sandacz53, kajtek42, piła, tomek7221, anita13, andy08, victory04, benq77, buruburu, iwonaro, robaczio9, coruble, buba48, keram, baraxx, Creative, shemi, lukasz10051, cze, szukisek, virginiaa, margaretka62, tat4, monsun65, lordsiur, kubus009, jacolcom, mlody2205, seat1234, moje401, ARTUROSE, kaczy24, Ambasadoor70, Andi-diesel, lopez76, zakopne, adox80, huarez44, jerry1013, mp3de, Manias01, lucky170, siwy710, mach12, stanley_pl, krywan, ASTERGO, mariant, mpawel71, LeoMarkus, Zelwik, FALKON69, aspekt2004, prularis, toczev, weenzer, podol76, Prospector00, Auto-Lux, marek6408, Bodzio57, lauenburg, Sdrov, spoli, Trytonik, czesiek1964, qczi, grygol2, wotar, slay25, kkk244240, maciej1900, jeak, arkadiusz271, RUFO, mirek4321, bolo335, symoni2008, DARO67, glut1510, wojtasg, solgerx, Sypi, pepik11, Lukas8, jszlom, luka121212, piotrek38, ryszardos69, sayo300, sita1204, zibim, trybsiu, angelo1969, crownart, Feniks101, celin, polska00, gawron.1983, splittt, jedrek00711, pipipiotr, mariusz242, Rogall, alex, andjey, Cirrus, kasi, Bartekn90, saper7206, drenn1, xard2906, Ashigari, aj 1971, andrzejdkl2, buku54, jarecki500, tedxvs, mani4444, ramon, singielka30, sproket1, Vanisz, Kamirllo105, gento, tristan_mk, skajla, Abdul_wisimulacha, biggreg, bialy219, bil, pbpbpbpbpb, EFBOT, Svilesis

Archiwum:
Grudzień 2016 (428)
Listopad 2016 (2437)
Październik 2016 (1965)
Wrzesień 2016 (1859)
Sierpień 2016 (2523)
Lipiec 2016 (2609)


Pokaż wszystkie tagi:
Wejścia na Vorek.pl z:
{referer}



NABÓR NA STANOWISKO


MODERATOR        UPLOADER

Autor: jack68
Data: 1 Kwiecień 2012
Kategoria: FILMY » Lektor
0


Gonitwa - The Cup (2011) PL.DVDRip.RMVB / Lektor PL

Gonitwa - The Cup  (2011) PL.DVDRip.RMVB / Lektor PL

info

czas trwania: 1 godz. 42 min.
gatunek: Dramat, Sportowy
premiera: 13 października 2011 (Świat) 2011-10-13 (więcej...)
produkcja :Australia, USA
reżyseria: Simon Wincer
scenariusz: Simon Wincer, Eric O'Keefe


Melbourne Cup to najważniejsza gonitwa Australii, która rozpala emocje miłośników wyścigów konnych. Film powraca do wydarzeń, które miały miejsce w 2002 roku. Główną postacią dramatu, który się rozegrał, był młody, niezwykle utalentowany dżokej, Damien Oliver. Dzień przed wyścigiem jego ukochany brat, Jason, zginął w tragicznym wypadku, a świat młodego zawodnika legł w gruzach. Chłopak postanowił wystartować w zawodach.

dane techniczne
General
Gonitwa - The Cup (2011) [DVDRip.RMVB.rmvb
Format : RealMedia
File size : 329 MiB
Duration : 1h 34mn
Overall bit rate : 477 Kbps
Video #1
ID : 1
Format : RealVideo 4
Codec ID : RV40
Codec ID/Info : Based on AVC (H.264), Real Player 9
Duration : 1h 34mn
Bit rate : 413 Kbps
Width : 640 pixels
Height : 352 pixels
Display aspect ratio : 16:9
Frame rate : 25.000 fps
Bits/(Pixel*Frame) : 0.073
Stream size : 280 MiB (85%)
Audio #0
ID : 0
Format : Cooker
Codec ID : cook
Codec ID/Info : Based on G.722.1, Real Player 6
Duration : 1h 34mn
Bit rate : 64.1 Kbps
Channel(s) : 2 channels
Sampling rate : 44.1 KHz
Bit depth : 16 bits
Stream size : 43.5 MiB (13%)



linki
Aby zobaczyć ukryty tekst musisz być zalogowany, jeżeli nie masz konta zarejestruj się!




Podziel się !

Delicious'da Share  Share on Facebook  Friendfeed Share  Google Shared  StubmleUpon'da Share  Digg'de Share  Netvibes'de Share  Reddit'de Share RSS Feeds Subscribe!

Powrót
Przeglądasz witrynę jako gość.
Dlatego zachęcamy do rejestracji lub do zalogowania się.

Informacja
Użytkownicy z rangą Gość nie mogą dodawać komentarzy.