Menu

Download

Dziś nas odwiedzili:
Archiwum:
Grudzień 2016 (613)
Listopad 2016 (2434)
Październik 2016 (1961)
Wrzesień 2016 (1857)
Sierpień 2016 (2521)
Lipiec 2016 (2605)


Pokaż wszystkie tagi:
Wejścia na Vorek.pl z:
{referer}



NABÓR NA STANOWISKO


MODERATOR        UPLOADER

Autor: neo25
Data: 18 Listopad 2011
Kategoria: FILMY » Lektor
0


Krzyżowy Ogień / Assassination Games (2011) PL.DVDRip.XviD / Lektor PL

Krzyżowy Ogień / Assassination Games (2011) PL.DVDRip.XviD / Lektor PL

reżyseria: Ernie Barbarash
scenariusz: Aaron Rahsaan Thomas
premiera: 29 lipca 2011 (Świat)
gatunek: Sensacyjny, Thriller, Akcja

Brazil (Jean Claude Van Damme) to płatny zabójca, który przyjmie każde zlecenie, jeśli dostanie tylko odpowiednie wynagrodzenie. Flint (Scott Adkins) z kolei, to były specjalista od mokrej roboty, który wycofał się z zawodu, po tym jak jego żona zapadła w śpiączkę w wyniku brutalnego ataku handlarza narkotyków. I kiedy pojawia się zlecenie zabójstwa tego handlarza narkotyków, który napadł na żonę Flinta, obaj zabójcy wspólnie podejmują się tego zadania.

Krzyżowy Ogień / Assassination Games (2011) PL.DVDRip.XviD / Lektor PL
Video
ID : 0
Format : MPEG-4 Visual
Format profile : Advanced [email protected]
Format settings, BVOP : 2
Format settings, QPel : No
Format settings, GMC : No warppoints
Format settings, Matrix : Default (H.263)
Muxing mode : Packed bitstream
Codec ID : XVID
Codec ID/Hint : XviD
Duration : 1h 35mn
Bit rate : 901 Kbps
Width : 640 pixels
Height : 352 pixels
Display aspect ratio : 16:9
Frame rate : 25.000 fps
Color space : YUV
Chroma subsampling : 4:2:0
Bit depth : 8 bits
Scan type : Progressive
Compression mode : Lossy
Bits/(Pixel*Frame) : 0.160
Stream size : 617 MiB (87%)
Writing library : XviD 1.1.0 (UTC 2005-11-22)

Audio
ID : 1
Format : MPEG Audio
Format version : Version 1
Format profile : Layer 3
Mode : Joint stereo
Mode extension : MS Stereo
Codec ID : 55
Codec ID/Hint : MP3
Duration : 1h 35mn
Bit rate mode : Constant
Bit rate : 128 Kbps
Channel(s) : 2 channels
Sampling rate : 48.0 KHz
Compression mode : Lossy
Stream size : 87.7 MiB (12%)
Alignment : Aligned on interleaves
Interleave, duration : 40 ms (1.00 video frame)
Interleave, preload duration : 504 ms




Download:

FilePost.com

Aby zobaczyć ukryty tekst musisz być zalogowany, jeżeli nie masz konta zarejestruj się!


LUB

FileServe.com

Aby zobaczyć ukryty tekst musisz być zalogowany, jeżeli nie masz konta zarejestruj się!


LUB

FileSonic.com

Aby zobaczyć ukryty tekst musisz być zalogowany, jeżeli nie masz konta zarejestruj się!


###INFO###
Mój upload |*| My Upload
Bez hasła ! ! !|*| No password
Tylko jeden link |*| Only One Link




Podziel się !

Delicious'da Share  Share on Facebook  Friendfeed Share  Google Shared  StubmleUpon'da Share  Digg'de Share  Netvibes'de Share  Reddit'de Share RSS Feeds Subscribe!

Powrót
Przeglądasz witrynę jako gość.
Dlatego zachęcamy do rejestracji lub do zalogowania się.

Informacja
Użytkownicy z rangą Gość nie mogą dodawać komentarzy.