Menu

Download

Dziś nas odwiedzili:
Prospector00, figo73, snayper, sir daro 24, agary35, wytaczarz44, Liar, dejw, yonk, matey777, andy08, kuras, jacek40old, heniek_ih, skajla, szybki811, skarabeusz, pixel1194, brovarek123, GunHead, cichyd1, Ambasadoor70, solgerx, MarczelM, kurosumi, igi2, akak1, kat666, klymvm, biznesmen66, mlody2205, misiu1185, piterd14, grzegorz48, feihung, jurek50, Beno182210, panradzio, karton1, nowmarek, sbb1953, Manias01, pentor, tomaszo1948, iruss3, jeak, Sypi, topikos, Andi-diesel, demon190219, wawa998, kanzas, aga2.05, kudek01, mariant, golden2, aronia, Zelwik, mondia, lysy68, waclaw, lukasz10051, polska00, Lorenz, geniusloci, bodekk2, sznurowski, 75tofik, krepel, tomek i ania, Bodzio57, Finder, Mario090673, keram, koziorożec, cze, tat4, buku54, huarez44, kajtek42, lepper, splittt, Dom612, jedrek00711, lauratcv, crownart, adox80, marek6408, secundus, miro72, Krakus51, Fedor11, luka121212, baraxx, marian1999, zieciut2, edmund54, podol76, jerry1013, buba48, victory04, mpawel71, toczev, ulaghost, Sdrov, circus, anetam1, JoXs, ARTUROSE, andino, wotar, qczi, Lukas8, Creative, lyser, renka, lucky170, weenzer, osa31, arkadiusz271, kamelot2012, grygol2, krys49, symoni2008, piurored123, aspekt2004, Auto-Lux, danix20, seat1234, bolo335, prularis, papor, wojtasg, ASTERGO, zbeer, tedxvs, jacolcom, intermilano, robaczio9, Uszka2001, latos2005, RUFO, MARIULA500, konradko77, pipipiotr, jusia266, jojogurt, biggreg, mirek4321, ryszardos69, angelo1969, drenn1, papay100, Bartekn90, joanna72, pluton777777, djlemur, mp3de, celin, spoli, andjey, alex, spot2302, tobi180, sayo300, pepik11, Cirrus, jurczyna, kasi, EdiMar, bowe1969, rw57, mariusz242, aj 1971, nonez, Kamirllo105, waldemarmichniuk, Vanisz, rftgyh, Ashigari, patryk12345, jan000, darekbus, ahmedibnfahlan, Johanson325, jarecki500, ramon, slawol666, smoksmok31, miecio28, EFBOT, virginiaa, Svilesis

Archiwum:
Grudzień 2016 (556)
Listopad 2016 (2434)
Październik 2016 (1961)
Wrzesień 2016 (1857)
Sierpień 2016 (2521)
Lipiec 2016 (2605)


Pokaż wszystkie tagi:
Wejścia na Vorek.pl z:
{referer}



NABÓR NA STANOWISKO


MODERATOR        UPLOADER

Autor: neo25
Data: 18 Listopad 2011
Kategoria: FILMY » Lektor
0


Miasto Złodziei / The Town (2010) PL.DVDRip.XviD / Lektor PL

Miasto Złodziei / The Town (2010) PL.DVDRip.XviD / Lektor PL

Doug MacRay to przestępca, który wraz z szajką kryminalistów napada na banki. Podczas jednej z takich akcji zakładniczką zostaje Claire Keesey, kierowniczka banku. Złodzieje puszczają ją wolno, jednak ta czuje się zagrożona. Jej strach łagodzi spotkany mężczyzna o imieniu Doug. Nie wie, że to on brał udział w napadzie na jej bank...

Miasto Złodziei / The Town (2010) PL.DVDRip.XviD / Lektor PL
Video
ID : 0
Format : MPEG-4 Visual
Format profile : Advanced [email protected]
Format settings, BVOP : 2
Format settings, QPel : No
Format settings, GMC : No warppoints
Format settings, Matrix : Default (H.263)
Muxing mode : Packed bitstream
Codec ID : XVID
Codec ID/Hint : XviD
Duration : 2h 0mn
Bit rate : 788 Kbps
Width : 640 pixels
Height : 272 pixels
Display aspect ratio : 2.35:1
Frame rate : 23.976 fps
Color space : YUV
Chroma subsampling : 4:2:0
Bit depth : 8 bits
Scan type : Progressive
Compression mode : Lossy
Bits/(Pixel*Frame) : 0.189
Stream size : 681 MiB (85%)
Writing library : XviD 1.2.1 (UTC 2008-12-04)

Audio
ID : 1
Format : MPEG Audio
Format version : Version 1
Format profile : Layer 3
Mode : Joint stereo
Mode extension : MS Stereo
Codec ID : 55
Codec ID/Hint : MP3
Duration : 2h 0mn
Bit rate mode : Constant
Bit rate : 128 Kbps
Channel(s) : 2 channels
Sampling rate : 44.1 KHz
Compression mode : Lossy
Stream size : 111 MiB (14%)
Alignment : Split accross interleaves
Interleave, duration : 42 ms (1.00 video frame)
Interleave, preload duration : 500 ms
Writing library : LAME



Download:

FilePost.com

Aby zobaczyć ukryty tekst musisz być zalogowany, jeżeli nie masz konta zarejestruj się!


LUB

FileServe.com

Aby zobaczyć ukryty tekst musisz być zalogowany, jeżeli nie masz konta zarejestruj się!


LUB

FileSonic.com

Aby zobaczyć ukryty tekst musisz być zalogowany, jeżeli nie masz konta zarejestruj się!


###INFO###
Mój upload |*| My Upload
Bez hasła ! ! !|*| No password
Tylko jeden link |*| Only One Link




Podziel się !

Delicious'da Share  Share on Facebook  Friendfeed Share  Google Shared  StubmleUpon'da Share  Digg'de Share  Netvibes'de Share  Reddit'de Share RSS Feeds Subscribe!

Powrót
Przeglądasz witrynę jako gość.
Dlatego zachęcamy do rejestracji lub do zalogowania się.

Informacja
Użytkownicy z rangą Gość nie mogą dodawać komentarzy.