Menu

Download

Dziś nas odwiedzili:
areczek971, incubus, karton1, przemo_geremi, sayo300, PumaXP, ARTUROSE, 2lon, monsun65, lukasz666666, adamusasior122, drenn1, bogdanbig, waclaw, jaco013, kanzas, kwasek, Grad13, clarion, ciawek, tomek i ania, Sypi, rumak83, migotek, Trytonik, Fedor11, ElemenT8822, ziuta, raabartek, jeno10, bialy219, xmiro, fragles23, ulaghost, andy08, krepel, Konradp23, mwita3, seat1234, kolektor77, lysy68, andrzejpfx, slapot78, MarczelM, rodzynek1983, FALKON69, Feniks101, gargamel_50, biggreg, wlodek66, waawr, pawnan, tobi180, mlody2205, mangus, MISIU11, lauenburg, seba512, luizatomek, beduin666, latos2005, misio1960, pychu007, Bobbis, whisky65, xxvxx5, cze, bronek65, darekgl1968, draco, klymvm, Liar, lonej1, Grav1ty, Manias01, brovarek123, PadrePio, mach12, zakopne, pudlisz, slawo79, topikos, WeilandT, weenzer, ciołek12, mondia, lorak56, szturmen, piterd14, levy52, misiu1185, pawciopokemon, romi1976, kkk244240, Petair, bulkotnik, kasi, adox80, crownart, renka, pirek, Estek1, Bartekn90, kudek01, aspekt2004, buruburu, laewa, Zelwik, yonk, solgerx, miodowe, koziorożec, mp3de, artfrst, vermigor, agary35, adam1neo, dejw, joyeczek, Sarima, mart1nof, GunHead, pawel19677m, Siegfried, geniusloci, pitereku, lepper, sharp_99, baraxx, Krakus51, buku54, fazzy99, figo73, inesimariusz, angelo1969, pepik11, mariant, grzes997, foch5r, eneasz, igi2, arkadiusz271, gawron.1983, spoli, darekbus, wotar, paul zawadzki, kako181, jasiek700, wytaczarz44, Oscar58, topolski, druidx, polska00, pipipiotr, eree, spot2302, Marek.b58, nonez, jerry1013, robaczio9, xard2906, janek12, botox35, piurored123, bylik71, akak1, RUFO, artekplay, EdiMar, wawa998, jinks13, andjey, mks, circus, celin, 17051970, jacekgmk, ahagner, alex, rysiek975, Matthew67, przemek.c, mpawel71, Erik, jpwko, snayper, mogo76, jarecki500, mardra1, miesniak, Auto-Lux, Cirrus, lopez138, P.P.P., mariusz242, Zakapior77, aro383, crashed323, BONZOH, aj 1971, amfa07, slawol666, Vanisz, adrianno, tom7517, spam9580, gento, Seba1984r, narkusdwa, fox57, skajla, andino, virginiaa, Ambasadoor70, EFBOT, Svilesis, CCC59KXJ

Archiwum:
Grudzień 2016 (276)
Listopad 2016 (2437)
Październik 2016 (1966)
Wrzesień 2016 (1859)
Sierpień 2016 (2523)
Lipiec 2016 (2609)


Pokaż wszystkie tagi:
Wejścia na Vorek.pl z:
{referer}



NABÓR NA STANOWISKO


MODERATOR        UPLOADER

Autor: neo25
Data: 18 Listopad 2011
Kategoria: FILMY » Lektor
0


Podwójne życie / Pan Bóbr / The Beaver (2011) PL.DVDRip.XviD / Lektor PL

Podwójne życie / Pan Bóbr / The Beaver (2011) PL.DVDRip.XviD / Lektor PL

czas trwania: 1 godz. 31 min.
gatunek: Dramat
premiera: 16 marca 2011 (Świat)
reżyseria: Jodie Foster
scenariusz: Kyle Killen

Film przedstawia historię Waltera Blacka (Mel Gibson), który jest właścicielem fabryki zabawek. Mężczyzna przechodzi ciężkie załamanie nerwowe, a jedynym sposobem na ukojenie jego cierpienia okazują się rozmowy z pacynką bobra, którą zaczyna nosić na ręce. To przez nią się komunikuje. Maskotkę traktuje także jako najlepszego przyjaciela.

Podwójne życie / Pan Bóbr / The Beaver (2011) PL.DVDRip.XviD / Lektor PL
Video
ID : 0
Format : MPEG-4 Visual
Format profile : Advanced [email protected]
Format settings, BVOP : 1
Format settings, QPel : No
Format settings, GMC : No warppoints
Format settings, Matrix : Default (H.263)
Codec ID : XVID
Codec ID/Hint : XviD
Duration : 1h 26mn
Bit rate : 973 Kbps
Width : 640 pixels
Height : 272 pixels
Display aspect ratio : 2.35:1
Frame rate : 25.000 fps
Original frame rate : 23.976 fps
Color space : YUV
Chroma subsampling : 4:2:0
Bit depth : 8 bits
Scan type : Progressive
Compression mode : Lossy
Bits/(Pixel*Frame) : 0.224
Stream size : 605 MiB (88%)
Writing library : XviD 64

Audio
ID : 1
Format : MPEG Audio
Format version : Version 1
Format profile : Layer 3
Codec ID : 55
Codec ID/Hint : MP3
Duration : 1h 26mn
Bit rate mode : Constant
Bit rate : 128 Kbps
Channel(s) : 2 channels
Sampling rate : 48.0 KHz
Compression mode : Lossy
Delay relative to video : 4ms
Stream size : 79.4 MiB (12%)
Alignment : Split accross interleaves
Interleave, duration : 501 ms (12.53 video frames)
Interleave, preload duration : 500 ms




Download:

FilePost.com

Aby zobaczyć ukryty tekst musisz być zalogowany, jeżeli nie masz konta zarejestruj się!


LUB

FileServe.com

Aby zobaczyć ukryty tekst musisz być zalogowany, jeżeli nie masz konta zarejestruj się!


LUB

FileSonic.com

Aby zobaczyć ukryty tekst musisz być zalogowany, jeżeli nie masz konta zarejestruj się!


###INFO###
Mój upload |*| My Upload
Bez hasła ! ! !|*| No password
Tylko jeden link |*| Only One Link





Podziel się !

Delicious'da Share  Share on Facebook  Friendfeed Share  Google Shared  StubmleUpon'da Share  Digg'de Share  Netvibes'de Share  Reddit'de Share RSS Feeds Subscribe!

Powrót
Przeglądasz witrynę jako gość.
Dlatego zachęcamy do rejestracji lub do zalogowania się.

Informacja
Użytkownicy z rangą Gość nie mogą dodawać komentarzy.