Menu

Download

Dziś nas odwiedzili:
Archiwum:
Grudzień 2016 (170)
Listopad 2016 (2438)
Październik 2016 (1967)
Wrzesień 2016 (1859)
Sierpień 2016 (2523)
Lipiec 2016 (2609)


Pokaż wszystkie tagi:
Wejścia na Vorek.pl z:
{referer}



NABÓR NA STANOWISKO


MODERATOR        UPLOADER



Wrota do piekieł / Drag Me to Hell (2009) .DVDRiP.XViD / Lektor PL


OPISTwórca kultowych filmów grozy oraz "Spider-Mana" Sam Raimi, powraca pełnym akcji i efektów specjalnych thrillerem o młodej kobiecie, która została opętana przez nadprzyrodzone siły. W roli głównej występuje znana z filmu "Beowulf" Alison Lohman, jedna z najlepiej zapowiadających się aktorek młodego pokolenia

General
Complete name : Wrota.do.piekiel.DVDRip.Lektor.PL.avi
Format : AVI
Format/Info : Audio Video Interleave
File size : 700 MiB
Duration : 1h 38mn
Overall bit rate : 990 Kbps
Writing application : VirtualDubMod 1.5.10.2 (build 2542/release)
Writing library : VirtualDubMod build 2542/release

Video
ID : 0
Format : MPEG-4 Visual
Format profile : Advanced [email protected]
Format settings, BVOP : 1
Format settings, QPel : No
Format settings, GMC : No warppoints
Format settings, Matrix : Default (H.263)
Muxing mode : Packed bitstream
Codec ID : XVID
Codec ID/Hint : XviD
Duration : 1h 38mn
Bit rate : 853 Kbps
Width : 720 pixels
Height : 304 pixels
Display aspect ratio : 2.35:1
Frame rate : 23.976 fps
Color space : YUV
Chroma subsampling : 4:2:0
Bit depth : 8 bits
Scan type : Progressive
Compression mode : Lossy
Bits/(Pixel*Frame) : 0.162
Stream size : 603 MiB (86%)
Writing library : XviD 1.2.1 (UTC 2008-12-04)

Audio
ID : 1
Format : MPEG Audio
Format version : Version 1
Format profile : Layer 3
Mode : Joint stereo
Mode extension : MS Stereo
Codec ID : 55
Codec ID/Hint : MP3
Duration : 1h 38mn
Bit rate mode : Constant
Bit rate : 128 Kbps
Channel(s) : 2 channels
Sampling rate : 48.0 KHz
Compression mode : Lossy
Stream size : 90.5 MiB (13%)
Alignment : Aligned on interleaves
Interleave, duration : 42 ms (1.00 video frame)
Interleave, preload duration : 504 ms
Writing library : LAME3.98r
Encoding settings : -m j -V 4 -q 2 -lowpass 17 -b 128



SCREENY
Wrota do piekieł / Drag Me to Hell (2009) .DVDRiP.XViD / Lektor PL

Wrota do piekieł / Drag Me to Hell (2009) .DVDRiP.XViD / Lektor PL

Wrota do piekieł / Drag Me to Hell (2009) .DVDRiP.XViD / Lektor PL

[img]http://1.fwcdn.pl/ph/63/66/466366/137472.1.jpg?l=1240864177000[/img]

[img]http://1.fwcdn.pl/ph/63/66/466366/137475.1.jpg?l=1240864215000[/img]



DOWNLOAD
Aby zobaczyć ukryty tekst musisz być zalogowany, jeżeli nie masz konta zarejestruj się!



Podziel się !

Delicious'da Share  Share on Facebook  Friendfeed Share  Google Shared  StubmleUpon'da Share  Digg'de Share  Netvibes'de Share  Reddit'de Share RSS Feeds Subscribe!

Powrót
Przeglądasz witrynę jako gość.
Dlatego zachęcamy do rejestracji lub do zalogowania się.

Informacja
Użytkownicy z rangą Gość nie mogą dodawać komentarzy.