Menu

Download

Dziś nas odwiedzili:
Archiwum:
Grudzień 2016 (619)
Listopad 2016 (2434)
Październik 2016 (1961)
Wrzesień 2016 (1857)
Sierpień 2016 (2521)
Lipiec 2016 (2605)


Pokaż wszystkie tagi:
Wejścia na Vorek.pl z:
{referer}



NABÓR NA STANOWISKO


MODERATOR        UPLOADER



Pokój Śmierci (2009)480p DVDRip DivX AC3-SIZU Lektor PL

Pokój Śmierci (2009) 480p DVDRip DivX AC3 Lektor PL

Opis

reżyseria: Jonathan Liebesman
scenariusz: Ann Peacock, Gus Krieger
premiera: 16 stycznia 2009 (Świat) 2009-01-16
produkcja: USA
gatunek: Dramat, Thriller

Obce sobie osoby zostają zamknięte w pustym, wyciszonym pokoju. Są przekonane, że uczestniczą w prostym badaniu psychologicznym. Robią to tylko z jednego powodu ? dla kasy. Gdy zamkną się za nimi drzwi okaże się, że to, co miało być prostym sposobem na zarobienie kilkuset dolarów jest tak naprawdę najtrudniejszą próbą w ich życiu. Powoli dociera do nich, że stali się uczestnikami okrutnego i perwersyjnego eksperymentu rządowego. Nie wiedzą jednak jeszcze, ze nie wszyscy wyjdą z niego żywi?


Format : AVI
Format/Info : Audio Video Interleave
File size : 984 MiB
Duration : 1h 29mn
Overall bit rate : 1 541 Kbps
Writing application : Lavf52.78.4
Video #0
ID : 0
Format : MPEG-4 Visual
Format profile : [email protected]
Format settings, BVOP : Yes
Format settings, QPel : No
Format settings, GMC : No warppoints
Format settings, Matrix : Default (H.263)
Muxing mode : Packed bitstream
Codec ID : DX50
Codec ID/Hint : DivX 5
Duration : 1h 29mn
Bit rate : 1 082 Kbps
Width : 720 pixels
Height : 406 pixels
Display aspect ratio : 16:9
Frame rate : 25.000 fps
Resolution : 24 bits
Colorimetry : 4:2:0
Scan type : Progressive
Bits/(Pixel*Frame) : 0.148
Stream size : 691 MiB (70%)
Writing library : XviD 1.2.1 (UTC 2008-12-04)
Audio #1
ID : 1
Format : AC-3
Format/Info : Audio Coding 3
Codec ID : 2000
Duration : 1h 29mn
Bit rate mode : Constant
Bit rate : 448 Kbps
Channel(s) : 6 channels
Channel positions : Front: L C R, Surround: L R, LFE
Sampling rate : 48.0 KHz
Stream size : 286 MiB (29%)
Alignment : Aligned on interleaves
Interleave, duration : 32 ms (0.80 video frame)
Interleave, preload duration : 32 ms


Download:

Aby zobaczyć ukryty tekst musisz być zalogowany, jeżeli nie masz konta zarejestruj się!



Podziel się !

Delicious'da Share  Share on Facebook  Friendfeed Share  Google Shared  StubmleUpon'da Share  Digg'de Share  Netvibes'de Share  Reddit'de Share RSS Feeds Subscribe!

Powrót
Przeglądasz witrynę jako gość.
Dlatego zachęcamy do rejestracji lub do zalogowania się.

Informacja
Użytkownicy z rangą Gość nie mogą dodawać komentarzy.