Menu

Download

Polub nas!
Online
W ostatnich 24 godzinach odwiedziło nas 9318 użytkowników w tym 3773 zalogowanych oraz 5545 gości. Obecnie serwis przegląda 650 użytkowników, w tym 443 zalogowanych.
123456, adak140, adamw8, agafia89, agata1107, agenor22, aischa, ajekk, akak1, albercik82, aleksflu, AliG1985, Alkovita7, Alworthy, Amarativ, ambrela, amonre, Amstankiewicz, anasta, and20, andreo56, andres3900, andrzejf, Andrzejsmith1, AnotherWorld, anovire, Aramis1981, Arcist, art966, art987, arturkrawczyk1, arturos, Askalon, aspekt2004, attak, atteloiv, Avareon, ayway, bajka7, Baniura, barteckig, Bartosz87, Bazylides, bee, beee, Benton, bettyjot, BigBarney, bill22, Billy.Badd, Bjorn1967, blaugrana_92, blazieeeee, bleso, bobi10x, Bodzioa, bogdan85, bolobolc, bryner149, bulgoc, buli1234_79, burana25, bysio76, cacumen, cairo1, cauterize, celebr8, celnik10, cezaryp, CezaryW, chojraczek1974, christina2013, chrum, chudini, ciempiel, colossus1, compo, cormac666, cosca, cwks38, CyberLuke, cyfra, czarnyx, czaro22, czytelnik1973, dagobar, dandos2, darekbus, dareklo, dari66, dariusz.n, darog83, darwin23, dedarco, delfin666, delta37, deltaxt, Desire85, didek11, divxon, djobbi, dominik_vorek, dominous, donata2610, dragon2012, dresu1988, drikpitt, dstany22, Dudzi19, duero, dziadu123, eend, EFBOT, Efez, elmo_krk, Emilja, emkoz36, enigma1952, erik12, fantazja87, filmovsky, Fistach, Flashek1, Fragii21, frandkd666, frodo, frohike, Funaki, gardar, Garoner, geniusloci, gesio69, gochazach, godzio, gornik2000, gradeksr, grandfather, Greg43, gregfol, groveider, grugg47, Grzesinski, gtur1, Haider2015, hans26, harcmistrz, hardkooro, hasselbeink, hermar7, hopka69, hopkola26, ibiz, ice71, innyziomek, intermilano, irekw71, irenagra, ivka75, jagruaz, Janek24, Janek65, janmuz007, jarecki500, Jarexy, jaros991, jawy1962, jenock21, jodela, jola2323, jorus11, jozielona, jply, jupkeennss, JurekzBerlina, kacper969, kamaz107, Kambu, kamilllo88, kammal32, kapitan arr, kapustoteles, karbor83, kazekz, kazimierz c, kempy2, kenio23, Keradx, Kiciur, kika2413, kikusiozaur, kkk244240, kkrammer, kleopatra777, kololuk, kongro, korkor, koroner, koslind, kosti0, kot777, krisdopi, krisiun1, kryhol, krzysztof690801, ksokso, lach1234, lambo, laska94, lauenburg, leknica, lesmal, likherty, lis154, lobo75, lochacz, Locut, maciejino26, Mailo54, maja99, majchk, Majusia175, MAKALAS, maluszekkk7, Mania22, Manipulatio, Maqis, marcin.strzesniewski, Marcin17, marcin790, marcin8933, Marcl, MarcoPolo, Marek Malicki, MarekSowa, Margor, Maria197006, marian31, mario12a, Mario187, mariusz_ski4, maro1x, MARTEX01, maryush1024, mat2ylda, mateusz1989, maxwaski, maxwrite, Mayk3, melnik, mercurium, metal102, mguruaa, michalmok, microm, Mikul, mindhunter5, miro12, misimisi, misiucha, misq82, mjm, mkon, model99, mogo76, moje401, mona833, monadrag, MONel, monter11111, mortul, mpawel71, msado, msk234, muldas, nathan85, nemesis16, nicollubin, nicrams1, Nieqmaty, niko20, ninka155, niunio3, nkristoff, novus, Olala86, oldgreg, ossy, OwcaXXLL, PabloPce, PaganSpirit, pajakmistrz, papay100, pasmo07, patychatka, pawmot, pchelka, pedro72, pejusss, perlak36, phoenix, picer123, pio.sub, pios, piotrek984, Piotrskobo, piotur, pj2016, poladek, poldix, Polki, polo007, pop2, PorterPL, Premium_Kosa, psalms, psvrobbo, pyzdra525, p_igla, qba-81, QBASSOS, qqq, qviq, ra88, rafacus, Rafaello, raffmix, rafi481, ramon, rapoo15, ratblaster, RaWil, ray777, rdsxfi, redoker77, remington692, renka, RH9394, richmond, rik5, ritchie1715, Robertnss, robin163, Robo06, robo1967, roko25, roksa, romulus88, ross154, rszy, ruigor, rupieci, ruzgov, rychom, rysnek75, safilear, sagan71, Salluzzo, sandwich71,  SARCIA, scottie, sebass71, sebastianpieta, sebeq, sebsto28, sej34, setites, sevilla111, shadow1602, siny181, sir daro 24, skurzany, skysoblue, SLAVCIO, slawek 58, slawisst, sław, SmutnyWiesio, stadan, Stan63, stapbert, stibo26, Stronniczy, sudovia, Svilesis, szamansfer, Szczelamwciemno, szeryfkite, szwagier102, T0Biii, tahiro, termoso2013, thalotor, TIMOONN62, titek21, tites, Todu2, Tomake1028, tomasz0222, tomcio69, tomciu18, tomczech1, Tomek01, tomson12a, topfx, topikos, trebla, trebugas, tree, tufton, tukeip, turysta1984, twist79, ulan20, Valgard, vdr1vn96, vorek6108, voytas1234, Wa03Skol, waldemarp, wdl22, wilkus66, Winterlady, witol, witold9999, Wixon83, wkaczka1963, Xentrix, x_maly_x, yareek1, yollly, zabiello, zasraniec, zbyszek1408, zdzichujola, ZELERR, Zelwik, zenon dankowski, ziec, zsystem47, zyga11, zylasty, zzeekk, _mcj_
Najgoretsze wstawki


Autor: neo25
Data: 23 Październik 2011
Kategoria: FILMY » Lektor
0


Skazaniec / Felon (2008) PL.DVDRip.H264.AC3 / Lektor PL

Skazaniec / Felon (2008) PL.DVDRip.H264.AC3 / Lektor PL

Produkcja: USA
Gatunek: Dramat
Data premiery: 12.08.2008 (Świat)
Reżyseria: Ric Roman Waugh
Scenariusz: Ric Roman Waugh
Czas trwania: 104 min.

Opowieść o spokojnym obywatelu (Val Kilmer), który staje się ofiarą amerykańskiego systemu sądowego. W "Felon" główny bohater, John Smith zabija w obronie własnej włamywacza na własnej posesji. Porządny obywatel pomimo walki zostaje przez bezwzględny sąd posłany do więzienia.

Dane Techniczne:
Video
Codec ID : H264
Bit rate : 1 752 Kbps
Width : 720 pixels
Height : 386 pixels
Display aspect ratio : 1.865
Frame rate : 25.000 fps
Bits/(Pixel*Frame) : 0.252
Stream size : 1.22 GiB (90%)

Audio
Format : AC-3
Bit rate : 192 Kbps
Channel(s) : 2 channels
Stream size : 137 MiB (10%)


Download:
Aby zobaczyć ukryty tekst musisz być zalogowany, jeżeli nie masz konta zarejestruj się!





Podziel się !

Delicious'da Share  Share on Facebook  Friendfeed Share  Google Shared  StubmleUpon'da Share  Digg'de Share  Netvibes'de Share  Reddit'de Share RSS Feeds Subscribe!

Przeglądasz witrynę jako gość.
Dlatego zachęcamy do rejestracji lub do zalogowania się.

Informacja
Użytkownicy z rangą Gość nie mogą dodawać komentarzy.