Menu

Download

Dziś nas odwiedzili:
cycek77, konradko77, Fedor11, gress19, pychu007, wlodek66, rymos, gawron.1983, OWC1, momo1410, antczaki, xmiro, priv, Ambasadoor70, pawela, zpcytadela, drls1989, marcindziki1, kudek01, brovarek123, waawr, circus, ramzes542, bollos, victory04, djlemur, mariant, Thalia1, anita13, twingo25, slawo79, lucky170, raabartek, geniu7, Siegfried, johnyb70, yaro97, Karlos2150, pitereku, Manias01, krepel, MIREK11111, adamusasior122, DeejayMalec, topolski, kwasek, areczek971, solgerx, pentor, gento, dtox1, tomaszo1948, Feniks101, andrzejpfx, crownart, jacenty179, robek4, lonej1, 75tofik, rafgraf, tobi180, sinus421, tomek i ania, skima112, zakopne, snayper, gruby1001, ulaghost, pika01, Estek1, Bogkowa, aszk, amilo, przemko1022, JoXs, skajla, topikos, gregorcio, 1marek1, 1boniek1, kamyk70, qwerty1945, kriss86pl, matey777, pionek21, seba512, prularis, szukisek, Tomciu78, marekdudi, pirek, Grad13, pinoter58, rufinone, monsun65, pepik11, akak1, rutkowski20, FALKON69, ARTUROSE, jedrek00711, Dawid88Diablo, mirunia22, cze, malczyce, silviulian, kris2008, lepper, Sarima, mondia, esy, skyluk, rumak83, jano666, eree, mach12, sproket1, picer123, dejw, micpie8, Trytonik, misiu1185, baraxx, narkusdwa, Lukas8, bronek65, lordsiur, buruburu, vermigor, robaczio9, bulkotnik, biggreg, piterd14, Zelwik, yonk, ewa1971, arrtturro76, Liar, lauratcv, Sypi, MarczelM, sir daro 24, Sdrov, P.P.P., waclaw, ziuta, piurored123, spoli, miro, kasi, arkadiusz271, mp3de, GunHead, 17051970, machoney1920, sharp_99, dorkasevi, cxy35, celin, bylik71, wotar, jupkeennss, bil, syaro, pipipiotr, tedxvs, wytaczarz44, bydgoszcz22, darekbus, igi2, jarro40, mart1nof, tom7517, joanna72, angelo1969, RysioJanusz, Lorenz, kajtek42, Erik, kat666, aj 1971, jinks13, mart73, lauenburg, Cirrus, serrafus, krzycho1985, splittt, jpwko, mogo76, EFBOT, whisky65, artekplay, weglownia, jusia266, andjey, Bartekn90, xard2906, jurczyna, Auto-Lux, buku54, jarecki500, mariusz242, slawol666, Adi73, iwonaro, Kamirllo105, fmondeo, maruda3773, ahmedibnfahlan, Svilesis, Zakapior77, virginiaa, gbur17, cwiras22, aspekt2004, Seba1984r, karol80, Estebes777, szturmen, Johanson325, adox80, aga2.05, puedros57, adikos34, miodowe

Archiwum:
Grudzień 2016 (200)
Listopad 2016 (2438)
Październik 2016 (1967)
Wrzesień 2016 (1859)
Sierpień 2016 (2523)
Lipiec 2016 (2609)


Pokaż wszystkie tagi:
Wejścia na Vorek.pl z:
{referer}



NABÓR NA STANOWISKO


MODERATOR        UPLOADER



Skazaniec / Felon (2008) PL.DVDRip.H264.AC3 / Lektor PL

Skazaniec / Felon (2008) PL.DVDRip.H264.AC3 / Lektor PL

Produkcja: USA
Gatunek: Dramat
Data premiery: 12.08.2008 (Świat)
Reżyseria: Ric Roman Waugh
Scenariusz: Ric Roman Waugh
Czas trwania: 104 min.

Opowieść o spokojnym obywatelu (Val Kilmer), który staje się ofiarą amerykańskiego systemu sądowego. W "Felon" główny bohater, John Smith zabija w obronie własnej włamywacza na własnej posesji. Porządny obywatel pomimo walki zostaje przez bezwzględny sąd posłany do więzienia.

Dane Techniczne:
Video
Codec ID : H264
Bit rate : 1 752 Kbps
Width : 720 pixels
Height : 386 pixels
Display aspect ratio : 1.865
Frame rate : 25.000 fps
Bits/(Pixel*Frame) : 0.252
Stream size : 1.22 GiB (90%)

Audio
Format : AC-3
Bit rate : 192 Kbps
Channel(s) : 2 channels
Stream size : 137 MiB (10%)


Download:
Aby zobaczyć ukryty tekst musisz być zalogowany, jeżeli nie masz konta zarejestruj się!





Podziel się !

Delicious'da Share  Share on Facebook  Friendfeed Share  Google Shared  StubmleUpon'da Share  Digg'de Share  Netvibes'de Share  Reddit'de Share RSS Feeds Subscribe!

Powrót
Przeglądasz witrynę jako gość.
Dlatego zachęcamy do rejestracji lub do zalogowania się.

Informacja
Użytkownicy z rangą Gość nie mogą dodawać komentarzy.