Menu

Download

Dziś nas odwiedzili:
Archiwum:
Grudzień 2016 (881)
Listopad 2016 (2433)
Październik 2016 (1961)
Wrzesień 2016 (1857)
Sierpień 2016 (2521)
Lipiec 2016 (2605)


Pokaż wszystkie tagi:
Wejścia na Vorek.pl z:
{referer}



NABÓR NA STANOWISKO


MODERATOR        UPLOADER




Kick-Ass (2010) Lektor PL

Kick-Ass (2010) Lektor PL

Kick-Ass (2010) Lektor PL
Dave (Aaron Johnson) jest nastoletnim fanem komiksów, który marzy o zostaniu prawdziwym superbohaterem. Z mocnym postanowieniem naprawy świata przybiera pseudonim Kick-Ass, zakłada specjalny strój i maskę a następnie wyrusza w miasto, aby walczyć ze złem. Jest jeden problem: nie ma kompletnie żadnych supermocy. Decyzja zostania superbohaterem jednak zapadła i od tej pory Kick-Ass będzie musiał stawić czoła najniebezpieczniejszym przestępcom. Wkrótce do chłopaka dołącza perfekcyjnie wytrenowana w zabijaniu jedenastoletnia dziewczynka o imieniu Hit Girl oraz szkolący ją w krwawym fachu ojciec - Big Daddy (Nicolas Cage)...


Kick-Ass (2010) Lektor PL

General
Complete name : /home/yoda20/Pulpit/bbc/kick-ass.xvid.PL.avi
Format : AVI
Format/Info : Audio Video Interleave
File size : 1.36 GiB
Duration : 1h 52mn
Overall bit rate : 1 732 Kbps
Writing application : transcode-1.1.5

Video
ID : 0
Format : MPEG-4 Visual
Format profile : Advanced [email protected]
Format settings, BVOP : 2
Format settings, QPel : No
Format settings, GMC : No warppoints
Format settings, Matrix : Default (H.263)
Codec ID : XVID
Codec ID/Hint : XviD
Duration : 1h 52mn
Bit rate : 1 274 Kbps
Width : 640 pixels
Height : 352 pixels
Display aspect ratio : 16:9
Frame rate : 25.000 fps
Color space : YUV
Chroma subsampling : 4:2:0
Bit depth : 8 bits
Scan type : Progressive
Compression mode : Lossy
Bits/(Pixel*Frame) : 0.226
Stream size : 1.00 GiB (74%)
Writing library : XviD 1.2.1 (UTC 2008-12-04)

Audio
ID : 1
Format : AC-3
Format/Info : Audio Coding 3
Mode extension : CM (complete main)
Codec ID : 2000
Duration : 1h 52mn
Bit rate mode : Constant
Bit rate : 448 Kbps
Channel(s) : 6 channels
Channel positions : Front: L C R, Side: L R, LFE
Sampling rate : 48.0 KHz
Bit depth : 16 bits
Compression mode : Lossy
Stream size : 361 MiB (26%)
Alignment : Aligned on interleaves
Interleave, duration : 40 ms (1.00 video frame)


Kick-Ass (2010) Lektor PL

Filesonic
Aby zobaczyć ukryty tekst musisz być zalogowany, jeżeli nie masz konta zarejestruj się!


Wupload
Aby zobaczyć ukryty tekst musisz być zalogowany, jeżeli nie masz konta zarejestruj się!


UploadStation
Aby zobaczyć ukryty tekst musisz być zalogowany, jeżeli nie masz konta zarejestruj się!



Podziel się !

Delicious'da Share  Share on Facebook  Friendfeed Share  Google Shared  StubmleUpon'da Share  Digg'de Share  Netvibes'de Share  Reddit'de Share RSS Feeds Subscribe!

Powrót
Przeglądasz witrynę jako gość.
Dlatego zachęcamy do rejestracji lub do zalogowania się.

Informacja
Użytkownicy z rangą Gość nie mogą dodawać komentarzy.