Menu

Download

Dziś nas odwiedzili:
Archiwum:
Grudzień 2016 (222)
Listopad 2016 (2438)
Październik 2016 (1967)
Wrzesień 2016 (1859)
Sierpień 2016 (2523)
Lipiec 2016 (2609)


Pokaż wszystkie tagi:
Wejścia na Vorek.pl z:
{referer}



NABÓR NA STANOWISKO


MODERATOR        UPLOADER



Rezydent / The Resident (2011) AC3 PL.DVDRip.XviD-RedCoders


The.Resident.2011.AC3.DVDRip.PL.XviD-RedCoders

LEKTOR PL

UPLOAD NA 3 SERWERY

5 % DANYCH NAPRAWCZYCH



Młoda lekarka Juliet Derme (Hilary Swank) przeprowadza się do nowego mieszkania na Brooklynie. Po pewnym czasie, zaczyna podejrzewać, że nie jest w mieszkaniu sama. Powoli, jej podejrzenie zamienia się w obsesję...




Dane techniczne:

Complete name : The.Resident.2011.AC3.DVDRip.PL.XviD-RedCoders.avi
Format : AVI
Format/Info : Audio Video Interleave
File size : 1.37 GiB
Duration : 1h 27mn
Overall bit rate : 2 240 Kbps
Writing application : VirtualDubMod 1.5.4.1 (build 2178/release)
Writing library : VirtualDubMod build 2178/release

Video
ID : 0
Format : MPEG-4 Visual
Format profile : Advanced [email protected]
Format settings, BVOP : No
Format settings, QPel : No
Format settings, GMC : No warppoints
Format settings, Matrix : Custom
Codec ID : XVID
Codec ID/Hint : XviD
Duration : 1h 27mn
Bit rate : 1 785 Kbps
Width : 704 pixels
Height : 384 pixels
Display aspect ratio : 16:9
Frame rate : 25.000 fps
Color space : YUV
Chroma subsampling : 4:2:0
Bit depth : 8 bits
Scan type : Progressive
Compression mode : Lossy
Bits/(Pixel*Frame) : 0.264
Stream size : 1.09 GiB (80%)
Writing library : XviD 58

Audio
ID : 1
Format : AC-3
Format/Info : Audio Coding 3
Mode extension : CM (complete main)
Codec ID : 2000
Duration : 1h 27mn
Bit rate mode : Constant
Bit rate : 448 Kbps
Channel(s) : 6 channels
Channel positions : Front: L C R, Side: L R, LFE
Sampling rate : 48.0 KHz
Bit depth : 16 bits
Compression mode : Lossy
Stream size : 280 MiB (20%)
Alignment : Aligned on interleaves
Interleave, duration : 96 ms (2.40 video frames)
Interleave, preload duration : 96 ms
Language : Polish
Source : Dvd4ALL






DOWNLOAD
Party po 500 mb, można pobierać naprzemiennie.


Mirror 1:

Aby zobaczyć ukryty tekst musisz być zalogowany, jeżeli nie masz konta zarejestruj się!



lub


Mirror 2:

Aby zobaczyć ukryty tekst musisz być zalogowany, jeżeli nie masz konta zarejestruj się!



lub


Mirror 3:

Aby zobaczyć ukryty tekst musisz być zalogowany, jeżeli nie masz konta zarejestruj się!



Podziel się !

Delicious'da Share  Share on Facebook  Friendfeed Share  Google Shared  StubmleUpon'da Share  Digg'de Share  Netvibes'de Share  Reddit'de Share RSS Feeds Subscribe!

Powrót
Przeglądasz witrynę jako gość.
Dlatego zachęcamy do rejestracji lub do zalogowania się.

Informacja
Użytkownicy z rangą Gość nie mogą dodawać komentarzy.