Menu

Download

Dziś nas odwiedzili:
Archiwum:
Grudzień 2016 (626)
Listopad 2016 (2434)
Październik 2016 (1961)
Wrzesień 2016 (1857)
Sierpień 2016 (2521)
Lipiec 2016 (2605)


Pokaż wszystkie tagi:
Wejścia na Vorek.pl z:
{referer}



NABÓR NA STANOWISKO


MODERATOR        UPLOADER



Tetro (2009) AC3 PL.DVDRip.XviD-RedCoders


Tetro.2009.AC3.DVDRip.PL.XviD-RedCoders

LEKTOR PL

UPLOAD NA 3 SERWERY

5 % DANYCH NAPRAWCZYCH



Bennie przybywa do Buenos Aires, aby odnaleźć starszego brata. Bennie - niegdyś obiecujący pisarz - dziś jest resztką samego siebie sprzed lat. Odnajduje nieukończoną sztukę swojego brata, która może przynieść odpowiedzi i pozwoli zrozumieć ich wspólną przeszłość.




Dane techniczne:

Complete name : Tetro.2009.AC3.DVDRip.PL.XviD-RedCoders
Format : AVI
Format/Info : Audio Video Interleave
File size : 1.37 GiB
Duration : 2h 1mn
Overall bit rate : 1 606 Kbps
Writing application : VirtualDubMod 1.5.4.1 (build 2178/release)
Writing library : VirtualDubMod build 2178/release

Video
ID : 0
Format : MPEG-4 Visual
Format profile : Advanced [email protected]
Format settings, BVOP : 1
Format settings, QPel : No
Format settings, GMC : No warppoints
Format settings, Matrix : Custom
Codec ID : XVID
Codec ID/Hint : XviD
Duration : 2h 1mn
Bit rate : 1 407 Kbps
Width : 640 pixels
Height : 352 pixels
Display aspect ratio : 16:9
Frame rate : 25.000 fps
Color space : YUV
Chroma subsampling : 4:2:0
Bit depth : 8 bits
Scan type : Progressive
Compression mode : Lossy
Bits/(Pixel*Frame) : 0.250
Stream size : 1.20 GiB (88%)
Writing library : XviD 58

Audio
ID : 1
Format : AC-3
Format/Info : Audio Coding 3
Mode extension : CM (complete main)
Codec ID : 2000
Duration : 2h 1mn
Bit rate mode : Constant
Bit rate : 192 Kbps
Channel(s) : 2 channels
Channel positions : Front: L R
Sampling rate : 48.0 KHz
Bit depth : 16 bits
Compression mode : Lossy
Stream size : 167 MiB (12%)
Alignment : Aligned on interleaves
Interleave, duration : 96 ms (2.40 video frames)
Interleave, preload duration : 96 ms
Language : Polish
Source : Dvd4all







DOWNLOAD
Party po 500 mb, można pobierać naprzemiennie.


Mirror 1:

Aby zobaczyć ukryty tekst musisz być zalogowany, jeżeli nie masz konta zarejestruj się!



lub


Mirror 2:

Aby zobaczyć ukryty tekst musisz być zalogowany, jeżeli nie masz konta zarejestruj się!



lub


Mirror 3:

Aby zobaczyć ukryty tekst musisz być zalogowany, jeżeli nie masz konta zarejestruj się!



Podziel się !

Delicious'da Share  Share on Facebook  Friendfeed Share  Google Shared  StubmleUpon'da Share  Digg'de Share  Netvibes'de Share  Reddit'de Share RSS Feeds Subscribe!

Powrót
Przeglądasz witrynę jako gość.
Dlatego zachęcamy do rejestracji lub do zalogowania się.

Informacja
Użytkownicy z rangą Gość nie mogą dodawać komentarzy.