Menu

Download

Dziś nas odwiedzili:
Archiwum:
Grudzień 2016 (673)
Listopad 2016 (2434)
Październik 2016 (1961)
Wrzesień 2016 (1857)
Sierpień 2016 (2521)
Lipiec 2016 (2605)


Pokaż wszystkie tagi:
Wejścia na Vorek.pl z:
{referer}



NABÓR NA STANOWISKO


MODERATOR        UPLOADER



Amerykanin  / The American (2010) AC3 PL.DVDRip.XviD-RedCoders


The.American.2010.AC3.DVDRip.PL.XviD-RedCoders

LEKTOR PL

UPLOAD NA 3 SERWERY

5 % DANYCH NAPRAWCZYCH



Jack (George Clooney) jest płatnym zabójcą, najlepszym w swoim fachu. Gdy podczas jednego ze zleceń ginie jego kochanka, postanawia definitywnie wycofać się z zawodu. Ostatnia misja Jacka rozegra się w malowniczym włoskim miasteczku. Ostrożny w kontaktach z ludźmi, będąc pod wpływem urokliwego miejsca, w którym przyszło mu wykonać niebezpieczne zadanie, z czasem zaprzyjaźnia się z Ojcem Benedetto (Paolo Bonacelli), jak również wdaje się w płomienny romans z Clarą (Violante Placido). Wszystko to mocno skomplikuje jego pracę.




Dane techniczne:

Complete name : The.American.2010.AC3.DVDRip.PL.XviD-RedCoders.avi
Format : AVI
Format/Info : Audio Video Interleave
File size : 1.37 GiB
Duration : 1h 40mn
Overall bit rate : 1 945 Kbps
Writing application : VirtualDubMod 1.5.4.1 (build 2178/release)
Writing library : VirtualDubMod build 2178/release

Video
ID : 0
Format : MPEG-4 Visual
Format profile : Advanced [email protected]
Format settings, BVOP : No
Format settings, QPel : No
Format settings, GMC : No warppoints
Format settings, Matrix : Custom
Codec ID : XVID
Codec ID/Hint : XviD
Duration : 1h 40mn
Bit rate : 1 491 Kbps
Width : 640 pixels
Height : 272 pixels
Display aspect ratio : 2.35:1
Frame rate : 25.000 fps
Color space : YUV
Chroma subsampling : 4:2:0
Bit depth : 8 bits
Scan type : Progressive
Compression mode : Lossy
Bits/(Pixel*Frame) : 0.342
Stream size : 1.05 GiB (77%)
Writing library : XviD 58

Audio
ID : 1
Format : AC-3
Format/Info : Audio Coding 3
Mode extension : CM (complete main)
Codec ID : 2000
Duration : 1h 40mn
Bit rate mode : Constant
Bit rate : 448 Kbps
Channel(s) : 6 channels
Channel positions : Front: L C R, Side: L R, LFE
Sampling rate : 48.0 KHz
Bit depth : 16 bits
Compression mode : Lossy
Stream size : 322 MiB (23%)
Alignment : Aligned on interleaves
Interleave, duration : 96 ms (2.40 video frames)
Interleave, preload duration : 96 ms
Language : Polish
Source : DVDseed






DOWNLOAD
Party po 500 mb, można pobierać naprzemiennie.


Mirror 1:

Aby zobaczyć ukryty tekst musisz być zalogowany, jeżeli nie masz konta zarejestruj się!



lub


Mirror 2:

Aby zobaczyć ukryty tekst musisz być zalogowany, jeżeli nie masz konta zarejestruj się!



lub


Mirror 3:

Aby zobaczyć ukryty tekst musisz być zalogowany, jeżeli nie masz konta zarejestruj się!



Podziel się !

Delicious'da Share  Share on Facebook  Friendfeed Share  Google Shared  StubmleUpon'da Share  Digg'de Share  Netvibes'de Share  Reddit'de Share RSS Feeds Subscribe!

Powrót
Przeglądasz witrynę jako gość.
Dlatego zachęcamy do rejestracji lub do zalogowania się.

Informacja
Użytkownicy z rangą Gość nie mogą dodawać komentarzy.