Menu

Download

Dziś nas odwiedzili:
Archiwum:
Grudzień 2016 (851)
Listopad 2016 (2433)
Październik 2016 (1961)
Wrzesień 2016 (1857)
Sierpień 2016 (2521)
Lipiec 2016 (2605)


Pokaż wszystkie tagi:
Wejścia na Vorek.pl z:
{referer}



NABÓR NA STANOWISKO


MODERATOR        UPLOADER

Autor: edzia1986
Data: 2 Luty 2011
Kategoria: FILMY » Lektor
0


Trzynaste piętro / The Thirteenth Floor (1999) [Lektor Pl] DVDRip.XviD

Trzynaste piętro / The Thirteenth Floor (1999) [Lektor Pl]  DVDRip.XviD

Początek XX wieku, poważny dystyngowany dżentelmen przekazuje w barze wiadomośc dla kogos o nazwisku Hall, wścibski barman czyta ją ukradkiem.
Nagle znajdujemy sie w latach obecnych Hannon Fuller (ten sam dżentelmen którego oglądalismy w scenie poprzedniej) budzi sie w pomieszczeniu pełnym komputerów i urządzeń.
Udaje się do baru skąd dzwoni i nagrywa sie na sekretarke Halla, chwile potem zostaje zamordowany.
Douglas Hall młody i odważny programista prowadzący wraz z Fullerem doświadczenia nad stworzeniem wirtualnego świata żyjącego własnym życiem ( w którym żyją odpowiedniki ludzi istniejących w realnym świecie) jest wstząśnięty śmiercią przyjaciela.
Powiadomiony przez wspólpracownika Whitneya udaje sie w podróż na początek wieku usiłując rozwiązać zagadke smierci sowjego mentora.
Ma na to tylko dwie godziny bo tylko na tyle zaprogramowany jest system.
Stacza tam walkę z odpowiednikiem Whitneya - Ashtonem (barman), ten zawiadamia go że wie iż jego świat jest tylko iluzją (udał sie za granicę miasta w którym mieszkał i napotkał granicę z siatki elektronowej - zgodnie z instrukcją zawartą w notatce odpowiednika Fullera).
W realnym swiecie tajemnicę smierci usiłuje rozwiązać czarnoskóry detektyw McBain, pojawia sie także młoda kobieta podająca się za córke Fullera, Jane - o której nikt wcześniej nidgy nie słyszał.
Hall dowiaduje się że jest głownym podejrzanym śmierci przyjaciela, córka Fullera znika, Whitney udając sie do eletronicznego świata ginie-na jego miejscu w świecie rzeczywistym budzi się Ashton, zaś sam Hall uświadamia sobie że notatka sporządzona przez Fullera nie dotyczyła tylko wirtualnego świata...

Trzynaste piętro / The Thirteenth Floor (1999) [Lektor Pl]  DVDRip.XviD

Cztery serwery do wyboru: Hotfile.com, Fileserve.com, Filesonic.com, Bitshare.com
Party można pobierać na przemian
Zawsze 10%Danych Naprawczych (wykluczone błędy CRC)


Info:

Oryg. tytuł Thirteenth Floor
Gatunek thriller sci-fi
Reżyseria Josef Rusnak
Scenariusz Ravel Centeno-Rodriguez, Josef Rusnak
Muzyka Thomas Wanker, Harald Kloser
Zdjęcia Wedigo von Schultzendorff

Dane Techniczne:

General
Format : AVI
Format/Info : Audio Video Interleave
File size : 699 MiB
Duration : 1h 40mn
Overall bit rate : 973 Kbps
Movie name : The 13th Floor (1999)
Director : QiX
Subject : The 13th Floor (1999)
Writing application : Nandub v1.0rc2
Writing library : Nandub build 1852/release
Copyright : QiX
Comment : QiX

Video
ID : 0
Format : MPEG-4 Visual
Format settings, BVOP : No
Format settings, QPel : No
Format settings, GMC : No warppoints
Format settings, Matrix : Default (H.263)
Codec ID : XVID
Codec ID/Hint : XviD
Duration : 1h 40mn
Bit rate : 834 Kbps
Width : 640 pixels
Height : 272 pixels
Display aspect ratio : 2.35:1
Frame rate : 23.976 fps
Color space : YUV
Chroma subsampling : 4:2:0
Bit depth : 8 bits
Scan type : Progressive
Bits/(Pixel*Frame) : 0.200
Stream size : 599 MiB (86%)

Audio
ID : 1
Format : MPEG Audio
Format version : Version 1
Format profile : Layer 3
Mode : Joint stereo
Mode extension : MS Stereo
Codec ID : 55
Codec ID/Hint : MP3
Duration : 1h 40mn
Bit rate mode : Variable
Bit rate : 128 Kbps
Channel(s) : 2 channels
Sampling rate : 48.0 KHz
Video delay : 8ms
Stream size : 90.4 MiB (13%)
Alignment : Aligned on interleaves
Interleave, duration : 24 ms (0.58 video frame)
Interleave, preload duration : 384 ms

DOWNLOAD:

Party można pobierać na przemian:

Aby zobaczyć ukryty tekst musisz być zalogowany, jeżeli nie masz konta zarejestruj się!


Do pobierania z powyższych serwerów polecam program FreeRapid który sam to zrobi za ciebie (obsługuje nie które konta premium np. na Hotfile)
Aby zobaczyć ukryty tekst musisz być zalogowany, jeżeli nie masz konta zarejestruj się!



Podziel się !

Delicious'da Share  Share on Facebook  Friendfeed Share  Google Shared  StubmleUpon'da Share  Digg'de Share  Netvibes'de Share  Reddit'de Share RSS Feeds Subscribe!

Powrót
Przeglądasz witrynę jako gość.
Dlatego zachęcamy do rejestracji lub do zalogowania się.

Informacja
Użytkownicy z rangą Gość nie mogą dodawać komentarzy.