Menu

Download

Dziś nas odwiedzili:
cyrzan4, robanek01, Liar, piterd14, wfman, janek12, kamyk70, maruda3773, snayper, solgerx, kikir3, miecio28, landryn, kazosokrates, keczo, bardini, pika01, joyeczek, djlemur, inesimariusz, n-gregory, wojtas1000, kako181, mart73, terry258, wojslo5, pit.7777, mrozek8, Painkiller212, yaro97, soja, cichyd1, CCC59KXJ, enigma1952, sandoran1962, HYDRODAREK, hopasiup, MIREK11111, lukasz10051, posejdon, krzysztofko, crashed323, DeejayMalec, wasyl75, pbpbpbpbpb, margaretka62, biznesmen66, pysiu_m, cybulx, geniusloci, wytaczarz44, bodek63, krepel, darekbus, lonej1, Krzysztof1973, kwankrzy1, kanzas, adamusasior122, Grav1ty, piterolo74, womi10, pentor, ulaghost, kriss86pl, jozielona, pawnan, vasiwasyl, figo73, slabin, coruble, tomaszo1948, darodaro, jeno10, dariuszlbn, smina, trez, Fedor11, lukaszek17, Andi-diesel, topikos, klymvm, Sdrov, robek4, piurored123, bodekk2, akak1, bylik71, dejw, tobi180, Grzegorz72, albert6020, kwasek, szybki811, bil, tadeuszo7, Estek1, stanley_pl, xxvxx5, zibi19979, crownart, Dawid88Diablo, Trytonik, wotar, skajla, cukierek-85, pirek, iwonaro, edmund54, mogo76, karton1, mani4444, MARTEX01, jupkeennss, Feniks101, ralf1976, adasek.u, Uszka2001, lysy1710, igi2, mariant, bolo335, zajac26, adox80, zakopne, zpcytadela, JoXs, buruburu, zbeer, pepik11, mondia, robaczio9, Manias01, gruby1001, topolski, weenzer, eree, Ewelina05, kudek01, tomaszlegion, Tomciu78, Veni, victory04, jeak, marekdudi, tomex2u, marek.k30, kasiaj4, splittt, barteklublin111, dudikn, malczyce, muldas, misiu1185, mp3de, MarczelM, ARTUROSE, yonk, lorak56, mardra1, sharkus, lepper, jedrek00711, and20, arkadiusz271, ciechom, foch5r, kasi, robin163, brovarek123, GunHead, slay25, lordsiur, pychu007, elasuc, baraxx, dorkasevi, Bartekn90, ziuta, symoni2008, 3366, spoli, aspekt2004, michas86, bydgoszcz22, pipipiotr, karol2005, kurosumi, przemograf, szery17, riko121, celin, jano666, tedxvs, jerry1013, krewetka105, xard2906, sir daro 24, andrzej15181, biggreg, jinks13, mks, gawron.1983, angelo1969, syaro, iruss3, wenancjusz21, porwichp, Ashigari, Cirrus, lucky170, mariusz242, skarabeusz, andjey, jpwko, Zelwik, alex, EdiMar, jarecki500, romuskat, aj 1971, bazumi20, Kamirllo105, adikos34, buku54, Auto-Lux, waldek77, tristan_mk, virginiaa, ramon, jarro40, Bab66, Bóli123, -julius-, emilianox, Karlos2150, szturmen, gargamel_50, tom7517, puedros57, Finder, matexe, gbur17, Svilesis, momo1410, Vanisz, 17051970, zbok69, LeoMarkus, secundus, EFBOT

Archiwum:
Grudzień 2016 (934)
Listopad 2016 (2431)
Październik 2016 (1961)
Wrzesień 2016 (1857)
Sierpień 2016 (2521)
Lipiec 2016 (2605)


Pokaż wszystkie tagi:
Wejścia na Vorek.pl z:
{referer}



NABÓR NA STANOWISKO


MODERATOR        UPLOADER



Spirit - Duch Miasta / The Spirit (2008) [BRRiP XviD] [PL - Lektor]

Spirit - Duch Miasta / The Spirit (2008) [BRRiP XviD] [PL - Lektor]

reżyseria: Frank Miller
scenariusz: Frank Miller
premiera: 9 stycznia 2009 (Polska) 25 grudnia 2008 (Świat)
produkcja: USA
gatunek: Fantasy, Akcja

Scarlett Johansson - Silken Floss
Samuel L. Jackson - Octopus
Eva Mendes - Sand Saref
Gabriel Macht - Spirit
Richard Portnow - Donnenfeld
Seychelle Gabriel - Młoda Sand
Dan Gerrity - Detektyw Sussman
Paz Vega - Plaster of Paris
Jaime King - Lorelei Rox
Stana Katic - Morgenstern

Pewnej księżycowej nocy w Central City, policjant Denny Colt (Gabriel Macht), rusza na kolejną misję. Trop wiedzie go na błotniste nabrzeże, wprost do starego zatopionego statku i na spotkanie z najgroźniejszym przestępcą w mieście Octopusem (Samuel L. Jackson). Ich widowiskowy pojedynek wykorzystuje wspólniczka Octopusa, Silken Floss (Scarlett Johansson), która kradnie jeden z dwóch tajemniczych skarbów wyłowionych z dna morza. Gdy milkną odgłosy wystrzałów, okazuje się, że w walce zginął jeden z policjantów, drugi jest w stanie krytycznym. Dennyemu, który został postrzelony i poraniony nożem tyle razy, że starczyłoby na kilka zgonów, udaje się uniknąć śmierci. Gdy z pomocą przychodzi jego ukochana, doktor Ellen Dolan (Sarah Paulson), policjant zdaje sobie sprawę, że rany zagoją się nad podziw łatwo i szybko. Nie wie tylko, dlaczego tak się dzieje. Jako Spirit powraca do miasta, które zyska od teraz wyjątkowego obrońcę. Dopóki Octopus jest na wolności, nikt w Central City nie może czuć się bezpieczny. Okazuje się jednak, że nie tylko Octopus był świadkiem pogromu policjantów tamtej nocy. Była tam również Sand Saref (Eva Mendes), słynna międzynarodowa złodziejka biżuterii. Jej imię powoduje, że serce Spirita uderza szybciej. Dawno temu, kiedy Denny Colt i Sand Saref byli jeszcze dzieciakami z sąsiedztwa, rozegrała się tragedia, która zmieniła w koszmar ich życie i rozdzieliła na lata. Sand wyjechała i miała już nigdy nie wrócić do Central City. Czy ta kobieta, pierwsza miłość Spirita, mogła zmienić się w osobę, która nie cofnie się przed niczym? Spirit, wobec dręczących go wątpliwości, coraz intensywniej poszukuje swej utraconej przed laty ukochanej. W międzyczasie Octopus, Silken oraz gromada ich sklonowanych pomocników (Louis Lombardi) również zaczynają szukać złodziejki. Wiedzą bowiem, że Sand jest w posiadaniu drugiego skarbu wyłowionego z głębin pamiętnej nocy i chcą się z nią wymienić. Gdy wreszcie dochodzi do wymiany skarbów, Octopus jest w stanie zrealizować plan, po którym będzie niepodzielnie rządził całym Central City. I tylko Spirit może mu w tym przeszkodzić. Lecz Octopus wie na temat nowego bohatera Central City więcej niż on sam. Zna przyczyny jego nieśmiertelności i wie, jak z nią walczyć.


The Spirit 2008 PL BRRip XviD-NN

Format                           : AVI
File size                        : 1.45 GiB
Duration                         : 1h 38mn
Overall bit rate                 : 2 116 Kbps

Video
Codec ID                         : XVID
Bit rate                         : 1 658 Kbps
Width                            : 720 pixels
Height                           : 304 pixels
Frame rate                       : 25.000 fps
Stream size                      : 1.14 GiB (78%)

Audio                            : Polish Lector
Format                           : AC-3
Bit rate                         : 448 Kbps
Channel(s)                       : 6 channels
Sampling rate                    : 48.0 KHz
Stream size                      : 315 MiB (21%)


Waga: 1.45GB

Paczki po 400MB, można pobierać na przemian:

Aby zobaczyć ukryty tekst musisz być zalogowany, jeżeli nie masz konta zarejestruj się!

lub

Aby zobaczyć ukryty tekst musisz być zalogowany, jeżeli nie masz konta zarejestruj się!

lub

Aby zobaczyć ukryty tekst musisz być zalogowany, jeżeli nie masz konta zarejestruj się!

lub

Aby zobaczyć ukryty tekst musisz być zalogowany, jeżeli nie masz konta zarejestruj się!


Paczki po 1GB, można pobierać na przemian:

Aby zobaczyć ukryty tekst musisz być zalogowany, jeżeli nie masz konta zarejestruj się!

lub

Aby zobaczyć ukryty tekst musisz być zalogowany, jeżeli nie masz konta zarejestruj się!

lub

Aby zobaczyć ukryty tekst musisz być zalogowany, jeżeli nie masz konta zarejestruj się!



Podziel się !

Delicious'da Share  Share on Facebook  Friendfeed Share  Google Shared  StubmleUpon'da Share  Digg'de Share  Netvibes'de Share  Reddit'de Share RSS Feeds Subscribe!

Powrót
Przeglądasz witrynę jako gość.
Dlatego zachęcamy do rejestracji lub do zalogowania się.

Informacja
Użytkownicy z rangą Gość nie mogą dodawać komentarzy.