Menu

Download

Dziś nas odwiedzili:
CCC59KXJ, adamusasior122, tomaszek24, bialekfotografia, scorpions793, smoksmok31, bardini, traco, artfrst, levy52, panradzio, majag88, kacper2008, tomex2u, lopez76, marcin_marcin, gasior932, Krzysztof1973, sita1204, waawr, pika01, skyluk, kanapkatorpedo, darekgl1968, MechoTV, Max Killer, solgerx, stanisław, jarek861029, siwy710, tomzam, and20, saper7206, GunHead, hardcore3791, zenszol, bastion4, fazzy99, slay25, geniu7, gwidon1981, kendzior94, harisa95, duninek16, Raf.36, inesimariusz, DeejayMalec, terry258, Auto-Lux, yonk, jacekgmk, johnyb70, JoXs, KECAJ_18, topolski, ulaghost, Ashigari, pbpbpbpbpb, lonej1, snikers77, renka, eree, Proton_1x, xxvxx5, MarczelM, pitereku, ciawek, Liar, igi2, chemik638, bowe1969, amfetaminka, jedrek00711, mogo76, edmund54, elasuc, Fedor11, pysiu_m, Grzegorz72, sproket1, klymvm, Andi-diesel, kodotorrva, JurekO, bulkotnik, cybulx, priv, mahone78, niasiaguntos, tomek i ania, lukaszek17, -julius-, sandacz53, szukisek, marcindziki1, mwita3, rumak83, eneasz, zbeer, bokser123, slabin, buku54, ravler89, zachod25, nowmarek, trigall, ango, mach12, cze, Mario090673, wloodo, aka93, demon190219, misek1, miecio28, ralf1976, jacolcom, pentor, gbur17, jurek50, tomaszo1948, pawel97, szturmen, narkusdwa, malczyce, piterd14, szakal, dulo123, mks, jupkeennss, rutkowski20, waldek77, gerard, qczi, adikos34, topikos, Feniks101, enigma1952, adam101102, bokkosa, supperbin, lukasz10051, Matthew67, osa31, sowiczi, zakopne, weenzer, pucini, papay100, darekbus, jpwko, buba48, pixel1194, mrozek8, mamata, keram, virginiaa, matey777, baraxx, danix20, wfman, drls1989, Krakus51, adox80, trez, lauratcv, Sarima, marian1999, aspekt2004, mobil199, kajtek42, lyser, mariant, LeoMarkus, jinks13, posejdon, Sdrov, wojtasg, ASTERGO, wotar, lordsiur, lepper, Painkiller212, rencista39, arkadiusz271, crownart, sayo300, krepel, andy08, monisia5, spoli, miodowe, mondia, Sypi, jeak, krys49, grygol2, misiu1185, symoni2008, Manias01, Lukas8, kamelot2012, Uszka2001, RUFO, maciej1900, fox57, kudek01, jerry1013, tedxvs, pipipiotr, konradko77, margaretka62, elwro, zibim, splittt, ryszardos69, tobi180, jano666, jusia266, pepik11, kat666, krewetka105, biggreg, Cirrus, xard2906, piotrek38, Beno182210, Kwiatek2009, alex, skarabeusz, Bartekn90, andjey, Vanisz, angelo1969, celin, mp3de, Zelwik, brovarek123, P.P.P., jarecki500, maruda3773, bazumi20, EdiMar, joanna72, aj 1971, ewa1971, Erik, Kamirllo105, mariusz242, skajla, Mussstaaang, ggtomy, secundus, Seba1984r, EFBOT, cris2111, Johanson325, Anastazja001, Svilesis, jurczyna, Trytonik, karbor83, momo1410, akak1, vasiwasyl

Archiwum:
Grudzień 2016 (762)
Listopad 2016 (2434)
Październik 2016 (1961)
Wrzesień 2016 (1857)
Sierpień 2016 (2521)
Lipiec 2016 (2605)


Pokaż wszystkie tagi:
Wejścia na Vorek.pl z:
{referer}



NABÓR NA STANOWISKO


MODERATOR        UPLOADER



Babylon A.D. (2008) [BDRiP XviD] [PL - Lektor]

Babylon A.D. (2008) [BDRiP XviD] [PL - Lektor]

reżyseria: Mathieu Kassovitz
scenariusz: Mathieu Kassovitz, Eric Besnard
premiera: 19 września 2008 (Polska) 20 sierpnia 2008 (Świat)
produkcja: Francja, USA, Wielka Brytania
gatunek: Thriller, Akcja, Sci-Fi

Vin Diesel - Thoorop
Michelle Yeoh - Siostra Rebecca
Mélanie Thierry - Aurora
Gérard Depardieu - Gorsky
Charlotte Rampling - Wielka Kapłanka
Mark Strong - Finn
Lambert Wilson - Darquandier
Jérôme Le Banner - Killa
Joel Kirby - Dr Newton
Souleymane Dicko - Jamal

Zrealizowana z ogromnym rozmachem, pełna akcji i znakomitych efektów specjalnych mroczna wizja świata na krawędzi upadku. Jest niedaleka przyszłość. Przez świat przetoczyła się fala wyniszczających wojen. Władz jest w rękach organizacji przestępczych fanatycznych sekt religijnych. Wszystko wskazuje na to, że Apokalipsa jest bliska. Toorop nie zna innego życia niż wojna. Sztukę zabijania doprowadził do mistrzostwa. Jego światem rządzi prosta zasada: zabijasz albo giniesz. Toorop nie zabija w imię żadnej idei, robi to dla pieniędzy. Przyjmując kolejne zlecenie nie spodziewa się, że tym razem ryzykuje znacznie więcej. Z pozoru zadanie wydaje się proste: w ciągu 6 dni trzeba przemycić pewną przesyłkę z Europy Wschodniej do Nawego Jorku. Przesyłką jest tajemnicza dziewczyna o imieniu Aurora.


Babylon A D 2008 PL BDRip XviD-NN

Parametry:
Format                           : AVI
File size                        : 2.19 GiB
Duration                         : 1h 36mn
Overall bit rate                 : 3 238 Kbps

Video
Codec ID                         : XVID
Bit rate                         : 2 778 Kbps
Width                            : 720 pixels
Height                           : 304 pixels
Frame rate                       : 25.000 fps
Stream size                      : 1.88 GiB (86%)

Audio                            : Polish Lector
Format                           : AC-3
Bit rate mode                    : Constant
Bit rate                         : 448 Kbps
Channel(s)                       : 6 channels
Sampling rate                    : 48.0 KHz
Bit depth                        : 16 bits
Stream size                      : 310 MiB (14%)


Waga: 2.20GB

Paczki po 400MB, można pobierać na przemian:

Aby zobaczyć ukryty tekst musisz być zalogowany, jeżeli nie masz konta zarejestruj się!

lub

Aby zobaczyć ukryty tekst musisz być zalogowany, jeżeli nie masz konta zarejestruj się!

lub

Aby zobaczyć ukryty tekst musisz być zalogowany, jeżeli nie masz konta zarejestruj się!

lub

Aby zobaczyć ukryty tekst musisz być zalogowany, jeżeli nie masz konta zarejestruj się!


Paczki po 1GB, można pobierać na przemian:

Aby zobaczyć ukryty tekst musisz być zalogowany, jeżeli nie masz konta zarejestruj się!

lub

Aby zobaczyć ukryty tekst musisz być zalogowany, jeżeli nie masz konta zarejestruj się!

lub

Aby zobaczyć ukryty tekst musisz być zalogowany, jeżeli nie masz konta zarejestruj się!



Podziel się !

Delicious'da Share  Share on Facebook  Friendfeed Share  Google Shared  StubmleUpon'da Share  Digg'de Share  Netvibes'de Share  Reddit'de Share RSS Feeds Subscribe!

Powrót
Przeglądasz witrynę jako gość.
Dlatego zachęcamy do rejestracji lub do zalogowania się.

Informacja
Użytkownicy z rangą Gość nie mogą dodawać komentarzy.